<?xml version="1.0" standalone="no"?>
<!DOCTYPE svg PUBLIC "-//W3C//DTD SVG 1.1//EN" "http://www.w3.org/Graphics/SVG/1.1/DTD/svg11.dtd" >
<svg>
<metadata>
Created by FontForge 20150108 at Thu Jan 22 16:45:29 2015
 By vagrant,,,
Copyright Dave Gandy 2015. All rights reserved.
</metadata>
<defs>
<font id="FontAwesome" horiz-adv-x="1536" >
  <font-face 
    font-family="FontAwesome"
    font-weight="400"
    font-stretch="normal"
    units-per-em="1792"
    panose-1="0 0 0 0 0 0 0 0 0 0"
    ascent="1536"
    descent="-256"
    bbox="-0.97314 -256.17 2304 1536.16"
    underline-thickness="0"
    underline-position="0"
    stemv="128"
    unicode-range="U+0020-F500"
  />
<missing-glyph horiz-adv-x="896" 
d="M224 112h448v1312h-448v-1312zM112 0v1536h672v-1536h-672z" />
    <glyph glyph-name=".notdef" horiz-adv-x="896" 
d="M224 112h448v1312h-448v-1312zM112 0v1536h672v-1536h-672z" />
    <glyph glyph-name="space" unicode=" " horiz-adv-x="448" 
 />
    <glyph glyph-name="asterisk" unicode="&#xf069;" horiz-adv-x="1664" 
d="M1482 486c61 -35 82 -114 47 -175l-64 -110c-35 -61 -114 -82 -175 -47l-266 153v-307c0 -70 -58 -128 -128 -128h-128c-70 0 -128 58 -128 128v307l-266 -153c-61 -35 -140 -14 -175 47l-64 110c-35 61 -14 140 47 175l266 154l-266 154c-61 35 -82 114 -47 175l64 110
c35 61 114 82 175 47l266 -153v307c0 70 58 128 128 128h128c70 0 128 -58 128 -128v-307l266 153c61 35 140 14 175 -47l64 -110c35 -61 14 -140 -47 -175l-266 -154z" />
    <glyph glyph-name="plus" unicode="&#xf067;" horiz-adv-x="1408" 
d="M1408 800v-192c0 -53 -43 -96 -96 -96h-416v-416c0 -53 -43 -96 -96 -96h-192c-53 0 -96 43 -96 96v416h-416c-53 0 -96 43 -96 96v192c0 53 43 96 96 96h416v416c0 53 43 96 96 96h192c53 0 96 -43 96 -96v-416h416c53 0 96 -43 96 -96z" />
    <glyph glyph-name="question" unicode="&#xf128;" horiz-adv-x="1024" 
d="M704 280v-240c0 -22 -18 -40 -40 -40h-240c-22 0 -40 18 -40 40v240c0 22 18 40 40 40h240c22 0 40 -18 40 -40zM1020 880c0 -190 -129 -263 -224 -316c-59 -34 -96 -103 -96 -132v0c0 -22 -17 -48 -40 -48h-240c-22 0 -36 34 -36 56v45c0 121 120 225 208 265
c77 35 109 68 109 132c0 56 -73 106 -154 106c-45 0 -86 -14 -108 -29c-24 -17 -48 -41 -107 -115c-8 -10 -20 -16 -31 -16c-9 0 -17 3 -25 8l-164 125c-17 13 -21 35 -10 53c108 179 260 266 464 266c214 0 454 -171 454 -400z" />
    <glyph glyph-name="acute" unicode="&#xb4;" horiz-adv-x="1792" 
 />
    <glyph glyph-name="dieresis" unicode="&#xa8;" horiz-adv-x="1792" 
 />
    <glyph glyph-name="AE" unicode="&#xc6;" horiz-adv-x="1792" 
 />
    <glyph glyph-name="Oslash" unicode="&#xd8;" horiz-adv-x="1792" 
 />
    <glyph glyph-name="trademark" unicode="&#x2122;" horiz-adv-x="1792" 
 />
    <glyph glyph-name="registered" unicode="&#xae;" horiz-adv-x="1792" 
 />
    <glyph glyph-name="minus" unicode="&#xf068;" horiz-adv-x="1408" 
d="M1408 800v-192c0 -53 -43 -96 -96 -96h-1216c-53 0 -96 43 -96 96v192c0 53 43 96 96 96h1216c53 0 96 -43 96 -96z" />
    <glyph glyph-name="copyright" unicode="&#xa9;" horiz-adv-x="1792" 
 />
    <glyph glyph-name="glass" unicode="&#xf000;" horiz-adv-x="1792" 
d="M1699 1350c0 -29 -23 -58 -43 -78l-632 -632v-768h320c35 0 64 -29 64 -64s-29 -64 -64 -64h-896c-35 0 -64 29 -64 64s29 64 64 64h320v768l-632 632c-20 20 -43 49 -43 78c0 49 62 58 99 58h1408c37 0 99 -9 99 -58z" />
    <glyph glyph-name="music" unicode="&#xf001;" 
d="M1536 1312v-1120c0 -141 -211 -192 -320 -192s-320 51 -320 192s211 192 320 192c66 0 132 -12 192 -39v537l-768 -237v-709c0 -141 -211 -192 -320 -192s-320 51 -320 192s211 192 320 192c66 0 132 -12 192 -39v967c0 42 28 79 68 92l832 256c9 3 18 4 28 4
c53 0 96 -43 96 -96z" />
    <glyph glyph-name="search" unicode="&#xf002;" horiz-adv-x="1664" 
d="M1152 704c0 247 -201 448 -448 448s-448 -201 -448 -448s201 -448 448 -448s448 201 448 448zM1664 -128c0 -70 -58 -128 -128 -128c-34 0 -67 14 -90 38l-343 342c-117 -81 -257 -124 -399 -124c-389 0 -704 315 -704 704s315 704 704 704s704 -315 704 -704
c0 -142 -43 -282 -124 -399l343 -343c23 -23 37 -56 37 -90z" />
    <glyph glyph-name="envelope" unicode="&#xf003;" horiz-adv-x="1792" 
d="M1664 32v768c-21 -24 -44 -46 -69 -66c-143 -110 -287 -222 -426 -338c-75 -63 -168 -140 -272 -140h-1h-1c-104 0 -197 77 -272 140c-139 116 -283 228 -426 338c-25 20 -48 42 -69 66v-768c0 -17 15 -32 32 -32h1472c17 0 32 15 32 32zM1664 1083c0 25 6 69 -32 69
h-1472c-17 0 -32 -15 -32 -32c0 -114 57 -213 147 -284c134 -105 268 -211 401 -317c53 -43 149 -135 219 -135h1h1c70 0 166 92 219 135c133 106 267 212 401 317c65 51 147 162 147 247zM1792 1120v-1088c0 -88 -72 -160 -160 -160h-1472c-88 0 -160 72 -160 160v1088
c0 88 72 160 160 160h1472c88 0 160 -72 160 -160z" />
    <glyph glyph-name="heart" unicode="&#xf004;" horiz-adv-x="1792" 
d="M896 -128c-16 0 -32 6 -44 18l-624 602c-8 7 -228 208 -228 448c0 293 179 468 478 468c175 0 339 -138 418 -216c79 78 243 216 418 216c299 0 478 -175 478 -468c0 -240 -220 -441 -229 -450l-623 -600c-12 -12 -28 -18 -44 -18z" />
    <glyph glyph-name="star" unicode="&#xf005;" horiz-adv-x="1664" 
d="M1664 889c0 -18 -13 -35 -26 -48l-363 -354l86 -500c1 -7 1 -13 1 -20c0 -26 -12 -50 -41 -50c-14 0 -28 5 -40 12l-449 236l-449 -236c-13 -7 -26 -12 -40 -12c-29 0 -42 24 -42 50c0 7 1 13 2 20l86 500l-364 354c-12 13 -25 30 -25 48c0 30 31 42 56 46l502 73
l225 455c9 19 26 41 49 41s40 -22 49 -41l225 -455l502 -73c24 -4 56 -16 56 -46z" />
    <glyph glyph-name="star_empty" unicode="&#xf006;" horiz-adv-x="1664" 
d="M1137 532l306 297l-422 62l-189 382l-189 -382l-422 -62l306 -297l-73 -421l378 199l377 -199zM1664 889c0 -18 -13 -35 -26 -48l-363 -354l86 -500c1 -7 1 -13 1 -20c0 -27 -12 -50 -41 -50c-14 0 -28 5 -40 12l-449 236l-449 -236c-13 -7 -26 -12 -40 -12
c-29 0 -42 24 -42 50c0 7 1 13 2 20l86 500l-364 354c-12 13 -25 30 -25 48c0 30 31 42 56 46l502 73l225 455c9 19 26 41 49 41s40 -22 49 -41l225 -455l502 -73c24 -4 56 -16 56 -46z" />
    <glyph glyph-name="user" unicode="&#xf007;" horiz-adv-x="1408" 
d="M1408 131c0 -162 -108 -259 -267 -259h-874c-159 0 -267 97 -267 259c0 226 53 573 346 573c31 0 162 -139 358 -139s327 139 358 139c293 0 346 -347 346 -573zM1088 1024c0 -212 -172 -384 -384 -384s-384 172 -384 384s172 384 384 384s384 -172 384 -384z" />
    <glyph glyph-name="film" unicode="&#xf008;" horiz-adv-x="1920" 
d="M384 -64v128c0 35 -29 64 -64 64h-128c-35 0 -64 -29 -64 -64v-128c0 -35 29 -64 64 -64h128c35 0 64 29 64 64zM384 320v128c0 35 -29 64 -64 64h-128c-35 0 -64 -29 -64 -64v-128c0 -35 29 -64 64 -64h128c35 0 64 29 64 64zM384 704v128c0 35 -29 64 -64 64h-128
c-35 0 -64 -29 -64 -64v-128c0 -35 29 -64 64 -64h128c35 0 64 29 64 64zM1408 -64v512c0 35 -29 64 -64 64h-768c-35 0 -64 -29 -64 -64v-512c0 -35 29 -64 64 -64h768c35 0 64 29 64 64zM384 1088v128c0 35 -29 64 -64 64h-128c-35 0 -64 -29 -64 -64v-128
c0 -35 29 -64 64 -64h128c35 0 64 29 64 64zM1792 -64v128c0 35 -29 64 -64 64h-128c-35 0 -64 -29 -64 -64v-128c0 -35 29 -64 64 -64h128c35 0 64 29 64 64zM1408 704v512c0 35 -29 64 -64 64h-768c-35 0 -64 -29 -64 -64v-512c0 -35 29 -64 64 -64h768c35 0 64 29 64 64z
M1792 320v128c0 35 -29 64 -64 64h-128c-35 0 -64 -29 -64 -64v-128c0 -35 29 -64 64 -64h128c35 0 64 29 64 64zM1792 704v128c0 35 -29 64 -64 64h-128c-35 0 -64 -29 -64 -64v-128c0 -35 29 -64 64 -64h128c35 0 64 29 64 64zM1792 1088v128c0 35 -29 64 -64 64h-128
c-35 0 -64 -29 -64 -64v-128c0 -35 29 -64 64 -64h128c35 0 64 29 64 64zM1920 1248v-1344c0 -88 -72 -160 -160 -160h-1600c-88 0 -160 72 -160 160v1344c0 88 72 160 160 160h1600c88 0 160 -72 160 -160z" />
    <glyph glyph-name="th_large" unicode="&#xf009;" horiz-adv-x="1664" 
d="M768 512v-384c0 -70 -58 -128 -128 -128h-512c-70 0 -128 58 -128 128v384c0 70 58 128 128 128h512c70 0 128 -58 128 -128zM768 1280v-384c0 -70 -58 -128 -128 -128h-512c-70 0 -128 58 -128 128v384c0 70 58 128 128 128h512c70 0 128 -58 128 -128zM1664 512v-384
c0 -70 -58 -128 -128 -128h-512c-70 0 -128 58 -128 128v384c0 70 58 128 128 128h512c70 0 128 -58 128 -128zM1664 1280v-384c0 -70 -58 -128 -128 -128h-512c-70 0 -128 58 -128 128v384c0 70 58 128 128 128h512c70 0 128 -58 128 -128z" />
    <glyph glyph-name="th" unicode="&#xf00a;" horiz-adv-x="1792" 
d="M512 288v-192c0 -53 -43 -96 -96 -96h-320c-53 0 -96 43 -96 96v192c0 53 43 96 96 96h320c53 0 96 -43 96 -96zM512 800v-192c0 -53 -43 -96 -96 -96h-320c-53 0 -96 43 -96 96v192c0 53 43 96 96 96h320c53 0 96 -43 96 -96zM1152 288v-192c0 -53 -43 -96 -96 -96h-320
c-53 0 -96 43 -96 96v192c0 53 43 96 96 96h320c53 0 96 -43 96 -96zM512 1312v-192c0 -53 -43 -96 -96 -96h-320c-53 0 -96 43 -96 96v192c0 53 43 96 96 96h320c53 0 96 -43 96 -96zM1152 800v-192c0 -53 -43 -96 -96 -96h-320c-53 0 -96 43 -96 96v192c0 53 43 96 96 96
h320c53 0 96 -43 96 -96zM1792 288v-192c0 -53 -43 -96 -96 -96h-320c-53 0 -96 43 -96 96v192c0 53 43 96 96 96h320c53 0 96 -43 96 -96zM1152 1312v-192c0 -53 -43 -96 -96 -96h-320c-53 0 -96 43 -96 96v192c0 53 43 96 96 96h320c53 0 96 -43 96 -96zM1792 800v-192
c0 -53 -43 -96 -96 -96h-320c-53 0 -96 43 -96 96v192c0 53 43 96 96 96h320c53 0 96 -43 96 -96zM1792 1312v-192c0 -53 -43 -96 -96 -96h-320c-53 0 -96 43 -96 96v192c0 53 43 96 96 96h320c53 0 96 -43 96 -96z" />
    <glyph glyph-name="th_list" unicode="&#xf00b;" horiz-adv-x="1792" 
d="M512 288v-192c0 -53 -43 -96 -96 -96h-320c-53 0 -96 43 -96 96v192c0 53 43 96 96 96h320c53 0 96 -43 96 -96zM512 800v-192c0 -53 -43 -96 -96 -96h-320c-53 0 -96 43 -96 96v192c0 53 43 96 96 96h320c53 0 96 -43 96 -96zM1792 288v-192c0 -53 -43 -96 -96 -96h-960
c-53 0 -96 43 -96 96v192c0 53 43 96 96 96h960c53 0 96 -43 96 -96zM512 1312v-192c0 -53 -43 -96 -96 -96h-320c-53 0 -96 43 -96 96v192c0 53 43 96 96 96h320c53 0 96 -43 96 -96zM1792 800v-192c0 -53 -43 -96 -96 -96h-960c-53 0 -96 43 -96 96v192c0 53 43 96 96 96
h960c53 0 96 -43 96 -96zM1792 1312v-192c0 -53 -43 -96 -96 -96h-960c-53 0 -96 43 -96 96v192c0 53 43 96 96 96h960c53 0 96 -43 96 -96z" />
    <glyph glyph-name="ok" unicode="&#xf00c;" horiz-adv-x="1792" 
d="M1671 970c0 -25 -10 -50 -28 -68l-724 -724l-136 -136c-18 -18 -43 -28 -68 -28s-50 10 -68 28l-136 136l-362 362c-18 18 -28 43 -28 68s10 50 28 68l136 136c18 18 43 28 68 28s50 -10 68 -28l294 -295l656 657c18 18 43 28 68 28s50 -10 68 -28l136 -136
c18 -18 28 -43 28 -68z" />
    <glyph glyph-name="remove" unicode="&#xf00d;" horiz-adv-x="1408" 
d="M1298 214c0 -25 -10 -50 -28 -68l-136 -136c-18 -18 -43 -28 -68 -28s-50 10 -68 28l-294 294l-294 -294c-18 -18 -43 -28 -68 -28s-50 10 -68 28l-136 136c-18 18 -28 43 -28 68s10 50 28 68l294 294l-294 294c-18 18 -28 43 -28 68s10 50 28 68l136 136
c18 18 43 28 68 28s50 -10 68 -28l294 -294l294 294c18 18 43 28 68 28s50 -10 68 -28l136 -136c18 -18 28 -43 28 -68s-10 -50 -28 -68l-294 -294l294 -294c18 -18 28 -43 28 -68z" />
    <glyph glyph-name="zoom_in" unicode="&#xf00e;" horiz-adv-x="1664" 
d="M1024 736v-64c0 -17 -15 -32 -32 -32h-224v-224c0 -17 -15 -32 -32 -32h-64c-17 0 -32 15 -32 32v224h-224c-17 0 -32 15 -32 32v64c0 17 15 32 32 32h224v224c0 17 15 32 32 32h64c17 0 32 -15 32 -32v-224h224c17 0 32 -15 32 -32zM1152 704c0 247 -201 448 -448 448
s-448 -201 -448 -448s201 -448 448 -448s448 201 448 448zM1664 -128c0 -71 -57 -128 -128 -128c-34 0 -67 14 -90 38l-343 342c-117 -81 -257 -124 -399 -124c-389 0 -704 315 -704 704s315 704 704 704s704 -315 704 -704c0 -142 -43 -282 -124 -399l343 -343
c23 -23 37 -56 37 -90z" />
    <glyph glyph-name="zoom_out" unicode="&#xf010;" horiz-adv-x="1664" 
d="M1024 736v-64c0 -17 -15 -32 -32 -32h-576c-17 0 -32 15 -32 32v64c0 17 15 32 32 32h576c17 0 32 -15 32 -32zM1152 704c0 247 -201 448 -448 448s-448 -201 -448 -448s201 -448 448 -448s448 201 448 448zM1664 -128c0 -71 -57 -128 -128 -128c-34 0 -67 14 -90 38
l-343 342c-117 -81 -257 -124 -399 -124c-389 0 -704 315 -704 704s315 704 704 704s704 -315 704 -704c0 -142 -43 -282 -124 -399l343 -343c23 -23 37 -56 37 -90z" />
    <glyph glyph-name="off" unicode="&#xf011;" 
d="M1536 640c0 -423 -345 -768 -768 -768s-768 345 -768 768c0 243 112 467 307 613c57 43 137 32 179 -25c43 -56 31 -137 -25 -179c-130 -98 -205 -247 -205 -409c0 -282 230 -512 512 -512s512 230 512 512c0 162 -75 311 -205 409c-56 42 -68 123 -25 179
c42 57 123 68 179 25c195 -146 307 -370 307 -613zM896 1408v-640c0 -70 -58 -128 -128 -128s-128 58 -128 128v640c0 70 58 128 128 128s128 -58 128 -128z" />
    <glyph glyph-name="signal" unicode="&#xf012;" horiz-adv-x="1792" 
d="M256 96v-192c0 -18 -14 -32 -32 -32h-192c-18 0 -32 14 -32 32v192c0 18 14 32 32 32h192c18 0 32 -14 32 -32zM640 224v-320c0 -18 -14 -32 -32 -32h-192c-18 0 -32 14 -32 32v320c0 18 14 32 32 32h192c18 0 32 -14 32 -32zM1024 480v-576c0 -18 -14 -32 -32 -32h-192
c-18 0 -32 14 -32 32v576c0 18 14 32 32 32h192c18 0 32 -14 32 -32zM1408 864v-960c0 -18 -14 -32 -32 -32h-192c-18 0 -32 14 -32 32v960c0 18 14 32 32 32h192c18 0 32 -14 32 -32zM1792 1376v-1472c0 -18 -14 -32 -32 -32h-192c-18 0 -32 14 -32 32v1472
c0 18 14 32 32 32h192c18 0 32 -14 32 -32z" />
    <glyph glyph-name="cog" unicode="&#xf013;" 
d="M1024 640c0 141 -115 256 -256 256s-256 -115 -256 -256s115 -256 256 -256s256 115 256 256zM1536 749v-222c0 -15 -12 -33 -28 -36l-185 -28c-11 -32 -23 -62 -39 -91c34 -49 70 -93 107 -138c6 -7 10 -16 10 -25s-3 -16 -9 -23c-24 -32 -159 -179 -193 -179
c-9 0 -18 4 -26 9l-138 108c-29 -15 -60 -28 -91 -38c-7 -61 -13 -126 -29 -186c-4 -16 -18 -28 -36 -28h-222c-18 0 -34 13 -36 30l-28 184c-31 10 -61 22 -90 37l-141 -107c-7 -6 -16 -9 -25 -9s-18 4 -25 11c-53 48 -123 110 -165 168c-5 7 -7 15 -7 23c0 9 3 16 8 23
c34 46 71 90 105 137c-17 32 -31 65 -41 99l-183 27c-17 3 -29 19 -29 36v222c0 15 12 33 27 36l186 28c10 32 23 62 39 92c-34 48 -70 93 -107 138c-6 7 -10 15 -10 24s4 16 9 23c24 33 159 179 193 179c9 0 18 -4 26 -10l138 -107c29 15 60 28 91 38c7 61 13 126 29 186
c4 16 18 28 36 28h222c18 0 34 -13 36 -30l28 -184c31 -10 61 -22 90 -37l142 107c6 6 15 9 24 9s18 -4 25 -10c53 -49 123 -111 165 -170c5 -6 7 -14 7 -22c0 -9 -3 -16 -8 -23c-34 -46 -71 -90 -105 -137c17 -32 31 -65 41 -98l183 -28c17 -3 29 -19 29 -36z" />
    <glyph glyph-name="trash" unicode="&#xf014;" horiz-adv-x="1408" 
d="M512 800v-576c0 -18 -14 -32 -32 -32h-64c-18 0 -32 14 -32 32v576c0 18 14 32 32 32h64c18 0 32 -14 32 -32zM768 800v-576c0 -18 -14 -32 -32 -32h-64c-18 0 -32 14 -32 32v576c0 18 14 32 32 32h64c18 0 32 -14 32 -32zM1024 800v-576c0 -18 -14 -32 -32 -32h-64
c-18 0 -32 14 -32 32v576c0 18 14 32 32 32h64c18 0 32 -14 32 -32zM1152 76v948h-896v-948c0 -48 27 -76 32 -76h832c5 0 32 28 32 76zM480 1152h448l-48 117c-3 4 -12 10 -17 11h-317c-6 -1 -14 -7 -17 -11zM1408 1120v-64c0 -18 -14 -32 -32 -32h-96v-948
c0 -110 -72 -204 -160 -204h-832c-88 0 -160 90 -160 200v952h-96c-18 0 -32 14 -32 32v64c0 18 14 32 32 32h309l70 167c20 49 80 89 133 89h320c53 0 113 -40 133 -89l70 -167h309c18 0 32 -14 32 -32z" />
    <glyph glyph-name="home" unicode="&#xf015;" horiz-adv-x="1664" 
d="M1408 544v-480c0 -35 -29 -64 -64 -64h-384v384h-256v-384h-384c-35 0 -64 29 -64 64v480c0 2 1 4 1 6l575 474l575 -474c1 -2 1 -4 1 -6zM1631 613l-62 -74c-5 -6 -13 -10 -21 -11h-3c-8 0 -15 2 -21 7l-692 577l-692 -577c-7 -5 -15 -8 -24 -7c-8 1 -16 5 -21 11
l-62 74c-11 13 -9 34 4 45l719 599c42 35 110 35 152 0l244 -204v195c0 18 14 32 32 32h192c18 0 32 -14 32 -32v-408l219 -182c13 -11 15 -32 4 -45z" />
    <glyph glyph-name="file_alt" unicode="&#xf016;" 
d="M1468 1156c37 -37 68 -111 68 -164v-1152c0 -53 -43 -96 -96 -96h-1344c-53 0 -96 43 -96 96v1600c0 53 43 96 96 96h896c53 0 127 -31 164 -68zM1024 1400v-376h376c-6 17 -15 34 -22 41l-313 313c-7 7 -24 16 -41 22zM1408 -128v1024h-416c-53 0 -96 43 -96 96v416
h-768v-1536h1280z" />
    <glyph glyph-name="time" unicode="&#xf017;" 
d="M896 992v-448c0 -18 -14 -32 -32 -32h-320c-18 0 -32 14 -32 32v64c0 18 14 32 32 32h224v352c0 18 14 32 32 32h64c18 0 32 -14 32 -32zM1312 640c0 300 -244 544 -544 544s-544 -244 -544 -544s244 -544 544 -544s544 244 544 544zM1536 640
c0 -424 -344 -768 -768 -768s-768 344 -768 768s344 768 768 768s768 -344 768 -768z" />
    <glyph glyph-name="road" unicode="&#xf018;" horiz-adv-x="1920" 
d="M1111 540v4l-24 320c-1 18 -17 32 -34 32h-186c-17 0 -33 -14 -34 -32l-24 -320v-4c-1 -16 14 -28 29 -28h244c15 0 30 12 29 28zM1870 73c0 -29 -8 -73 -46 -73h-704c17 0 31 14 30 32l-20 256c-1 18 -17 32 -34 32h-272c-17 0 -33 -14 -34 -32l-20 -256
c-1 -18 13 -32 30 -32h-704c-38 0 -46 44 -46 73c0 40 11 80 26 116l417 1044c10 25 37 47 64 47h339c-17 0 -33 -14 -34 -32l-15 -192c-1 -18 12 -32 30 -32h166c18 0 31 14 30 32l-15 192c-1 18 -17 32 -34 32h339c27 0 54 -22 64 -47l417 -1044c15 -36 26 -76 26 -116z
" />
    <glyph glyph-name="download_alt" unicode="&#xf019;" horiz-adv-x="1664" 
d="M1280 192c0 35 -29 64 -64 64s-64 -29 -64 -64s29 -64 64 -64s64 29 64 64zM1536 192c0 35 -29 64 -64 64s-64 -29 -64 -64s29 -64 64 -64s64 29 64 64zM1664 416v-320c0 -53 -43 -96 -96 -96h-1472c-53 0 -96 43 -96 96v320c0 53 43 96 96 96h465l135 -136
c37 -36 85 -56 136 -56s99 20 136 56l136 136h464c53 0 96 -43 96 -96zM1339 985c10 -24 5 -52 -14 -70l-448 -448c-12 -13 -29 -19 -45 -19s-33 6 -45 19l-448 448c-19 18 -24 46 -14 70c10 23 33 39 59 39h256v448c0 35 29 64 64 64h256c35 0 64 -29 64 -64v-448h256
c26 0 49 -16 59 -39z" />
    <glyph glyph-name="download" unicode="&#xf01a;" 
d="M1120 608c0 -9 -4 -17 -10 -24l-319 -319c-7 -6 -15 -9 -23 -9s-16 3 -23 9l-320 320c-9 10 -12 23 -7 35s17 20 30 20h192v352c0 18 14 32 32 32h192c18 0 32 -14 32 -32v-352h192v0c18 0 32 -14 32 -32zM768 1184c-300 0 -544 -244 -544 -544s244 -544 544 -544
s544 244 544 544s-244 544 -544 544zM1536 640c0 -424 -344 -768 -768 -768s-768 344 -768 768s344 768 768 768v0c424 0 768 -344 768 -768z" />
    <glyph glyph-name="upload" unicode="&#xf01b;" 
d="M1118 660c-5 -12 -17 -20 -30 -20h-192v-352c0 -18 -14 -32 -32 -32h-192c-18 0 -32 14 -32 32v352h-192v0c-18 0 -32 14 -32 32c0 9 4 17 10 24l319 319c7 6 15 9 23 9s16 -3 23 -9l320 -320c9 -10 12 -23 7 -35zM768 1184c-300 0 -544 -244 -544 -544
s244 -544 544 -544s544 244 544 544s-244 544 -544 544zM1536 640c0 -424 -344 -768 -768 -768s-768 344 -768 768s344 768 768 768v0c424 0 768 -344 768 -768z" />
    <glyph glyph-name="inbox" unicode="&#xf01c;" 
d="M1023 576h316c-2 5 -3 11 -5 16l-212 496h-708l-212 -496c-2 -5 -3 -11 -5 -16h316l95 -192h320zM1536 546v-482c0 -35 -29 -64 -64 -64h-1408c-35 0 -64 29 -64 64v482c0 36 11 89 25 123l238 552c14 33 54 59 89 59h832c35 0 75 -26 89 -59l238 -552
c14 -34 25 -87 25 -123z" />
    <glyph glyph-name="play_circle" unicode="&#xf01d;" 
d="M1184 640c0 -23 -12 -44 -32 -55l-544 -320c-10 -6 -21 -9 -32 -9s-22 3 -32 8c-20 12 -32 33 -32 56v640c0 23 12 44 32 56c20 11 45 11 64 -1l544 -320c20 -11 32 -32 32 -55zM1312 640c0 300 -244 544 -544 544s-544 -244 -544 -544s244 -544 544 -544
s544 244 544 544zM1536 640c0 -424 -344 -768 -768 -768s-768 344 -768 768s344 768 768 768s768 -344 768 -768z" />
    <glyph glyph-name="repeat" unicode="&#xf01e;" 
d="M1536 1280v-448c0 -35 -29 -64 -64 -64h-448c-26 0 -49 16 -59 40c-10 23 -5 51 14 69l138 138c-94 87 -218 137 -349 137c-282 0 -512 -230 -512 -512s230 -512 512 -512c159 0 306 72 404 199c5 7 14 11 23 12c9 0 18 -3 25 -9l137 -138c12 -11 12 -30 2 -43
c-146 -176 -362 -277 -591 -277c-423 0 -768 345 -768 768s345 768 768 768c197 0 388 -79 529 -212l130 129c18 19 46 24 70 14c23 -10 39 -33 39 -59z" />
    <glyph glyph-name="refresh" unicode="&#xf021;" 
d="M1511 480c0 -2 0 -5 -1 -7c-85 -354 -377 -601 -746 -601c-195 0 -384 77 -526 212l-129 -129c-12 -12 -28 -19 -45 -19c-35 0 -64 29 -64 64v448c0 35 29 64 64 64h448c35 0 64 -29 64 -64c0 -17 -7 -33 -19 -45l-137 -137c94 -88 219 -138 348 -138
c178 0 343 92 436 244c24 39 36 77 53 117c5 14 15 23 30 23h192c18 0 32 -15 32 -32zM1536 1280v-448c0 -35 -29 -64 -64 -64h-448c-35 0 -64 29 -64 64c0 17 7 33 19 45l138 138c-95 88 -220 137 -349 137c-178 0 -343 -92 -436 -244c-24 -39 -36 -77 -53 -117
c-5 -14 -15 -23 -30 -23h-199c-18 0 -32 15 -32 32v7c86 355 381 601 750 601c196 0 387 -78 529 -212l130 129c12 12 28 19 45 19c35 0 64 -29 64 -64z" />
    <glyph glyph-name="list_alt" unicode="&#xf022;" horiz-adv-x="1792" 
d="M384 352v-64c0 -17 -15 -32 -32 -32h-64c-17 0 -32 15 -32 32v64c0 17 15 32 32 32h64c17 0 32 -15 32 -32zM384 608v-64c0 -17 -15 -32 -32 -32h-64c-17 0 -32 15 -32 32v64c0 17 15 32 32 32h64c17 0 32 -15 32 -32zM384 864v-64c0 -17 -15 -32 -32 -32h-64
c-17 0 -32 15 -32 32v64c0 17 15 32 32 32h64c17 0 32 -15 32 -32zM1536 352v-64c0 -17 -15 -32 -32 -32h-960c-17 0 -32 15 -32 32v64c0 17 15 32 32 32h960c17 0 32 -15 32 -32zM1536 608v-64c0 -17 -15 -32 -32 -32h-960c-17 0 -32 15 -32 32v64c0 17 15 32 32 32h960
c17 0 32 -15 32 -32zM1536 864v-64c0 -17 -15 -32 -32 -32h-960c-17 0 -32 15 -32 32v64c0 17 15 32 32 32h960c17 0 32 -15 32 -32zM1664 160v832c0 17 -15 32 -32 32h-1472c-17 0 -32 -15 -32 -32v-832c0 -17 15 -32 32 -32h1472c17 0 32 15 32 32zM1792 1248v-1088
c0 -88 -72 -160 -160 -160h-1472c-88 0 -160 72 -160 160v1088c0 88 72 160 160 160h1472c88 0 160 -72 160 -160z" />
    <glyph glyph-name="lock" unicode="&#xf023;" horiz-adv-x="1152" 
d="M320 768h512v192c0 141 -115 256 -256 256s-256 -115 -256 -256v-192zM1152 672v-576c0 -53 -43 -96 -96 -96h-960c-53 0 -96 43 -96 96v576c0 53 43 96 96 96h32v192c0 246 202 448 448 448s448 -202 448 -448v-192h32c53 0 96 -43 96 -96z" />
    <glyph glyph-name="flag" unicode="&#xf024;" horiz-adv-x="1792" 
d="M320 1280c0 -46 -25 -87 -64 -110v-1266c0 -17 -15 -32 -32 -32h-64c-17 0 -32 15 -32 32v1266c-39 23 -64 64 -64 110c0 71 57 128 128 128s128 -57 128 -128zM1792 1216v-763c0 -37 -23 -51 -52 -66c-113 -61 -238 -116 -369 -116c-184 0 -272 140 -490 140
c-159 0 -326 -72 -464 -146c-11 -6 -21 -9 -33 -9c-35 0 -64 29 -64 64v742c0 24 12 41 31 55c24 16 53 30 79 43c126 64 279 120 421 120c157 0 280 -52 419 -117c28 -14 57 -19 88 -19c157 0 326 136 370 136c35 0 64 -29 64 -64z" />
    <glyph glyph-name="headphones" unicode="&#xf025;" horiz-adv-x="1664" 
d="M1664 650c0 -109 -20 -215 -60 -314l-20 -49l-185 -33c-29 -109 -128 -190 -247 -190v-32c0 -18 -14 -32 -32 -32h-64c-18 0 -32 14 -32 32v576c0 18 14 32 32 32h64c18 0 32 -14 32 -32v-32c96 0 179 -53 223 -131l68 12c19 62 29 126 29 193c0 302 -299 566 -640 566
s-640 -264 -640 -566c0 -67 10 -131 29 -193l68 -12c44 78 127 131 223 131v32c0 18 14 32 32 32h64c18 0 32 -14 32 -32v-576c0 -18 -14 -32 -32 -32h-64c-18 0 -32 14 -32 32v32c-119 0 -218 81 -247 190l-185 33l-20 49c-40 99 -60 205 -60 314c0 411 381 758 832 758
s832 -347 832 -758z" />
    <glyph glyph-name="volume_off" unicode="&#xf026;" horiz-adv-x="768" 
d="M768 1184v-1088c0 -35 -29 -64 -64 -64c-17 0 -33 7 -45 19l-333 333h-262c-35 0 -64 29 -64 64v384c0 35 29 64 64 64h262l333 333c12 12 28 19 45 19c35 0 64 -29 64 -64z" />
    <glyph glyph-name="volume_down" unicode="&#xf027;" horiz-adv-x="1152" 
d="M768 1184v-1088c0 -35 -29 -64 -64 -64c-17 0 -33 7 -45 19l-333 333h-262c-35 0 -64 29 -64 64v384c0 35 29 64 64 64h262l333 333c12 12 28 19 45 19c35 0 64 -29 64 -64zM1152 640c0 -100 -61 -197 -155 -235c-8 -4 -17 -5 -25 -5c-35 0 -64 28 -64 64
c0 76 116 55 116 176s-116 100 -116 176c0 36 29 64 64 64c8 0 17 -1 25 -5c94 -37 155 -135 155 -235z" />
    <glyph glyph-name="volume_up" unicode="&#xf028;" horiz-adv-x="1664" 
d="M768 1184v-1088c0 -35 -29 -64 -64 -64c-17 0 -33 7 -45 19l-333 333h-262c-35 0 -64 29 -64 64v384c0 35 29 64 64 64h262l333 333c12 12 28 19 45 19c35 0 64 -29 64 -64zM1152 640c0 -100 -61 -197 -155 -235c-8 -4 -17 -5 -25 -5c-35 0 -64 28 -64 64
c0 76 116 55 116 176s-116 100 -116 176c0 36 29 64 64 64c8 0 17 -1 25 -5c94 -37 155 -135 155 -235zM1408 640c0 -203 -122 -392 -310 -471c-8 -3 -17 -5 -25 -5c-36 0 -65 29 -65 64c0 28 16 47 39 59c27 14 52 26 76 44c99 72 157 187 157 309s-58 237 -157 309
c-24 18 -49 30 -76 44c-23 12 -39 31 -39 59c0 35 29 64 64 64c9 0 18 -2 26 -5c188 -79 310 -268 310 -471zM1664 640c0 -307 -183 -585 -465 -706c-8 -3 -17 -5 -26 -5c-35 0 -64 29 -64 64c0 29 15 45 39 59c14 8 30 13 45 21c28 15 56 32 82 51c164 121 261 312 261 516
s-97 395 -261 516c-26 19 -54 36 -82 51c-15 8 -31 13 -45 21c-24 14 -39 30 -39 59c0 35 29 64 64 64c9 0 18 -2 26 -5c282 -121 465 -399 465 -706z" />
    <glyph glyph-name="qrcode" unicode="&#xf029;" horiz-adv-x="1408" 
d="M384 384v-128h-128v128h128zM384 1152v-128h-128v128h128zM1152 1152v-128h-128v128h128zM128 129h384v383h-384v-383zM128 896h384v384h-384v-384zM896 896h384v384h-384v-384zM640 640v-640h-640v640h640zM1152 128v-128h-128v128h128zM1408 128v-128h-128v128h128z
M1408 640v-384h-384v128h-128v-384h-128v640h384v-128h128v128h128zM640 1408v-640h-640v640h640zM1408 1408v-640h-640v640h640z" />
    <glyph glyph-name="barcode" unicode="&#xf02a;" horiz-adv-x="1792" 
d="M63 0h-63v1408h63v-1408zM126 1h-32v1407h32v-1407zM220 1h-31v1407h31v-1407zM377 1h-31v1407h31v-1407zM534 1h-62v1407h62v-1407zM660 1h-31v1407h31v-1407zM723 1h-31v1407h31v-1407zM786 1h-31v1407h31v-1407zM943 1h-63v1407h63v-1407zM1100 1h-63v1407h63v-1407z
M1226 1h-63v1407h63v-1407zM1352 1h-63v1407h63v-1407zM1446 1h-63v1407h63v-1407zM1635 1h-94v1407h94v-1407zM1698 1h-32v1407h32v-1407zM1792 0h-63v1408h63v-1408z" />
    <glyph glyph-name="tag" unicode="&#xf02b;" 
d="M448 1088c0 71 -57 128 -128 128s-128 -57 -128 -128s57 -128 128 -128s128 57 128 128zM1515 512c0 -34 -14 -67 -37 -90l-491 -492c-24 -23 -57 -37 -91 -37s-67 14 -90 37l-715 716c-51 50 -91 147 -91 218v416c0 70 58 128 128 128h416c71 0 168 -40 219 -91
l715 -714c23 -24 37 -57 37 -91z" />
    <glyph glyph-name="tags" unicode="&#xf02c;" horiz-adv-x="1920" 
d="M448 1088c0 71 -57 128 -128 128s-128 -57 -128 -128s57 -128 128 -128s128 57 128 128zM1515 512c0 -34 -14 -67 -37 -90l-491 -492c-24 -23 -57 -37 -91 -37s-67 14 -90 37l-715 716c-51 50 -91 147 -91 218v416c0 70 58 128 128 128h416c71 0 168 -40 219 -91
l715 -714c23 -24 37 -57 37 -91zM1899 512c0 -34 -14 -67 -37 -90l-491 -492c-24 -23 -57 -37 -91 -37c-52 0 -78 24 -112 59l470 470c23 23 37 56 37 90s-14 67 -37 91l-715 714c-51 51 -148 91 -219 91h224c71 0 168 -40 219 -91l715 -714c23 -24 37 -57 37 -91z" />
    <glyph glyph-name="book" unicode="&#xf02d;" horiz-adv-x="1664" 
d="M1639 1058c25 -36 32 -83 18 -129l-275 -906c-25 -85 -113 -151 -199 -151h-923c-102 0 -211 81 -248 185c-16 45 -16 89 -2 127c2 20 6 40 7 64c1 16 -8 29 -6 41c4 24 25 41 41 68c30 50 64 131 75 183c5 19 -5 41 0 58c5 19 24 33 34 51c27 46 62 135 67 182
c2 21 -8 44 -2 60c7 23 29 33 44 53c24 33 64 128 70 181c2 17 -8 34 -5 52c4 19 28 39 44 62c42 62 50 199 177 163l-1 -3c17 4 34 9 51 9h761c47 0 89 -21 114 -56c26 -36 32 -83 18 -130l-274 -906c-47 -154 -73 -188 -200 -188h-869c-13 0 -29 -3 -38 -15
c-8 -12 -9 -21 -1 -43c20 -58 89 -70 144 -70h923c37 0 80 21 91 57l300 987c6 19 6 39 5 57c23 -9 44 -23 59 -43zM575 1056c-6 -18 4 -32 22 -32h608c17 0 36 14 42 32l21 64c6 18 -4 32 -22 32h-608c-17 0 -36 -14 -42 -32zM492 800c-6 -18 4 -32 22 -32h608
c17 0 36 14 42 32l21 64c6 18 -4 32 -22 32h-608c-17 0 -36 -14 -42 -32z" />
    <glyph glyph-name="bookmark" unicode="&#xf02e;" horiz-adv-x="1280" 
d="M1164 1408c15 0 30 -3 44 -9c44 -17 72 -58 72 -103v-1289c0 -45 -28 -86 -72 -103c-14 -6 -29 -8 -44 -8c-31 0 -60 11 -83 32l-441 424l-441 -424c-23 -21 -52 -33 -83 -33c-15 0 -30 3 -44 9c-44 17 -72 58 -72 103v1289c0 45 28 86 72 103c14 6 29 9 44 9h1048z" />
    <glyph glyph-name="print" unicode="&#xf02f;" horiz-adv-x="1664" 
d="M384 0h896v256h-896v-256zM384 640h896v384h-160c-53 0 -96 43 -96 96v160h-640v-640zM1536 576c0 35 -29 64 -64 64s-64 -29 -64 -64s29 -64 64 -64s64 29 64 64zM1664 576v-416c0 -17 -15 -32 -32 -32h-224v-160c0 -53 -43 -96 -96 -96h-960c-53 0 -96 43 -96 96v160
h-224c-17 0 -32 15 -32 32v416c0 105 87 192 192 192h64v544c0 53 43 96 96 96h672c53 0 126 -30 164 -68l152 -152c38 -38 68 -111 68 -164v-256h64c105 0 192 -87 192 -192z" />
    <glyph glyph-name="camera" unicode="&#xf030;" horiz-adv-x="1920" 
d="M960 864c159 0 288 -129 288 -288s-129 -288 -288 -288s-288 129 -288 288s129 288 288 288zM1664 1280c141 0 256 -115 256 -256v-896c0 -141 -115 -256 -256 -256h-1408c-141 0 -256 115 -256 256v896c0 141 115 256 256 256h224l51 136c25 66 103 120 173 120h512
c70 0 148 -54 173 -120l51 -136h224zM960 128c247 0 448 201 448 448s-201 448 -448 448s-448 -201 -448 -448s201 -448 448 -448z" />
    <glyph glyph-name="font" unicode="&#xf031;" horiz-adv-x="1664" 
d="M725 977l-170 -450c99 -1 198 -4 297 -4c19 0 38 1 57 2c-52 152 -113 307 -184 452zM0 -128l2 79c94 29 196 9 238 117l237 616l280 724h75h53c4 -7 8 -14 11 -21l205 -480c75 -177 144 -356 220 -532c45 -104 80 -211 130 -313c7 -16 21 -46 35 -57
c33 -26 125 -32 172 -50c3 -19 6 -38 6 -57c0 -9 -1 -17 -1 -26c-127 0 -254 16 -381 16c-131 0 -262 -11 -393 -15c0 26 1 52 4 78l131 28c27 6 80 13 80 50c0 36 -129 333 -145 374l-450 2c-26 -58 -127 -320 -127 -358c0 -77 147 -80 204 -88c1 -19 1 -38 1 -58
c0 -9 -1 -18 -2 -27c-116 0 -233 20 -349 20c-14 0 -34 -6 -48 -8c-63 -11 -125 -14 -188 -14z" />
    <glyph glyph-name="bold" unicode="&#xf032;" horiz-adv-x="1408" 
d="M555 15c44 -19 92 -32 140 -32c228 0 376 91 376 335c0 62 -8 127 -41 180c-93 150 -227 158 -388 158c-30 0 -73 0 -101 -10c0 -106 -1 -212 -1 -317c0 -69 -9 -256 15 -314zM541 761c36 -6 73 -7 109 -7c206 0 353 58 353 289c0 195 -173 262 -340 262
c-44 0 -87 -6 -130 -13c0 -101 8 -202 8 -303c0 -53 -1 -106 -1 -159c0 -23 0 -46 1 -69zM0 -128l2 94c64 16 129 17 191 43c35 59 30 163 30 230c0 22 2 978 -22 1025c-15 29 -162 36 -195 40l-4 83c238 4 476 21 713 21c45 0 91 -1 136 -1c226 0 475 -108 475 -368
c0 -179 -136 -246 -277 -310c190 -43 359 -172 359 -382c0 -344 -313 -458 -606 -458c-88 0 -176 6 -264 6c-179 0 -360 -16 -538 -23z" />
    <glyph glyph-name="italic" unicode="&#xf033;" horiz-adv-x="1024" 
d="M0 -126l17 85c64 20 133 28 193 59c23 29 34 66 41 101c13 68 231 1049 228 1129v25c-55 30 -122 22 -182 32l19 103c129 -6 260 -16 390 -16c106 0 212 10 318 16c-4 -30 -11 -60 -19 -89c-69 -24 -142 -35 -210 -62c-22 -54 -27 -113 -37 -170
c-48 -259 -112 -518 -165 -775c-10 -48 -59 -247 -55 -289l1 -18c61 -14 123 -21 185 -31c-2 -33 -8 -66 -16 -99c-22 0 -43 -3 -65 -3c-57 0 -116 19 -173 20c-69 1 -138 2 -206 2c-89 0 -176 -15 -264 -20z" />
    <glyph glyph-name="text_height" unicode="&#xf034;" horiz-adv-x="1792" 
d="M1744 128c44 0 58 -28 31 -63l-126 -162c-27 -35 -71 -35 -98 0l-126 162c-27 35 -13 63 31 63h80v1024h-80c-44 0 -58 28 -31 63l126 162c27 35 71 35 98 0l126 -162c27 -35 13 -63 -31 -63h-80v-1024h80zM81 1407l54 -27c7 -3 190 -5 211 -5c88 0 176 4 264 4
c72 0 143 -1 215 -1h293c40 0 63 -9 90 29l42 1c9 0 19 -1 28 -1c2 -112 2 -224 2 -336c0 -35 1 -74 -5 -109c-22 -8 -45 -15 -68 -18c-23 40 -39 84 -54 128c-7 20 -31 155 -33 157c-21 26 -44 21 -75 21c-91 0 -186 4 -276 -7c-5 -44 -9 -91 -8 -136c1 -281 4 -562 4 -843
c0 -77 -12 -158 10 -232c76 -39 166 -45 244 -80c2 -16 5 -33 5 -50c0 -9 -1 -19 -3 -29l-34 -1c-142 -4 -282 18 -425 18c-101 0 -202 -18 -303 -18c-1 17 -3 35 -3 52v9c38 61 175 62 238 99c22 49 19 320 19 383c0 202 -6 404 -6 606v117c0 18 4 90 -8 104
c-14 15 -145 12 -162 12c-37 0 -144 -17 -173 -38c-48 -33 -48 -233 -108 -237c-18 11 -43 27 -56 44v383z" />
    <glyph glyph-name="text_width" unicode="&#xf035;" 
d="M81 1407l54 -27c7 -3 190 -5 211 -5c88 0 176 4 264 4c265 0 533 6 798 -3c22 -1 43 13 56 31l42 1c9 0 19 -1 28 -1c2 -112 2 -224 2 -336c0 -36 1 -74 -5 -109c-22 -8 -45 -15 -68 -18c-23 40 -39 84 -54 128c-7 20 -32 155 -33 157c-7 9 -16 15 -27 19
c-8 3 -56 2 -66 2c-123 0 -265 7 -386 -7c-5 -44 -9 -91 -8 -136l1 -152v52c1 -163 3 -325 3 -487c0 -77 -12 -158 10 -232c76 -39 166 -45 244 -80c2 -16 5 -33 5 -50c0 -9 -1 -19 -3 -29l-34 -1c-142 -4 -282 18 -425 18c-101 0 -202 -18 -303 -18c-1 17 -3 35 -3 52v9
c38 61 175 62 238 99c25 56 18 529 18 617c0 14 -5 29 -5 44c0 41 7 276 -8 293c-14 15 -145 12 -162 12c-42 0 -277 -22 -301 -38c-47 -31 -48 -232 -108 -237c-18 11 -43 27 -56 44v383zM1310 125c35 0 168 -119 195 -140c15 -12 26 -29 26 -49s-11 -37 -26 -49
c-27 -21 -160 -140 -195 -140c-46 0 -30 107 -30 125h-1024c0 -18 16 -125 -30 -125c-35 0 -168 119 -195 140c-15 12 -26 29 -26 49s11 37 26 49c27 21 160 140 195 140c46 0 30 -107 30 -125h1024c0 18 -16 125 30 125z" />
    <glyph glyph-name="align_left" unicode="&#xf036;" horiz-adv-x="1792" 
d="M1792 192v-128c0 -35 -29 -64 -64 -64h-1664c-35 0 -64 29 -64 64v128c0 35 29 64 64 64h1664c35 0 64 -29 64 -64zM1408 576v-128c0 -35 -29 -64 -64 -64h-1280c-35 0 -64 29 -64 64v128c0 35 29 64 64 64h1280c35 0 64 -29 64 -64zM1664 960v-128
c0 -35 -29 -64 -64 -64h-1536c-35 0 -64 29 -64 64v128c0 35 29 64 64 64h1536c35 0 64 -29 64 -64zM1280 1344v-128c0 -35 -29 -64 -64 -64h-1152c-35 0 -64 29 -64 64v128c0 35 29 64 64 64h1152c35 0 64 -29 64 -64z" />
    <glyph glyph-name="align_center" unicode="&#xf037;" horiz-adv-x="1792" 
d="M1792 192v-128c0 -35 -29 -64 -64 -64h-1664c-35 0 -64 29 -64 64v128c0 35 29 64 64 64h1664c35 0 64 -29 64 -64zM1408 576v-128c0 -35 -29 -64 -64 -64h-896c-35 0 -64 29 -64 64v128c0 35 29 64 64 64h896c35 0 64 -29 64 -64zM1664 960v-128c0 -35 -29 -64 -64 -64
h-1408c-35 0 -64 29 -64 64v128c0 35 29 64 64 64h1408c35 0 64 -29 64 -64zM1280 1344v-128c0 -35 -29 -64 -64 -64h-640c-35 0 -64 29 -64 64v128c0 35 29 64 64 64h640c35 0 64 -29 64 -64z" />
    <glyph glyph-name="align_right" unicode="&#xf038;" horiz-adv-x="1792" 
d="M1792 192v-128c0 -35 -29 -64 -64 -64h-1664c-35 0 -64 29 -64 64v128c0 35 29 64 64 64h1664c35 0 64 -29 64 -64zM1792 576v-128c0 -35 -29 -64 -64 -64h-1280c-35 0 -64 29 -64 64v128c0 35 29 64 64 64h1280c35 0 64 -29 64 -64zM1792 960v-128
c0 -35 -29 -64 -64 -64h-1536c-35 0 -64 29 -64 64v128c0 35 29 64 64 64h1536c35 0 64 -29 64 -64zM1792 1344v-128c0 -35 -29 -64 -64 -64h-1152c-35 0 -64 29 -64 64v128c0 35 29 64 64 64h1152c35 0 64 -29 64 -64z" />
    <glyph glyph-name="align_justify" unicode="&#xf039;" horiz-adv-x="1792" 
d="M1792 192v-128c0 -35 -29 -64 -64 -64h-1664c-35 0 -64 29 -64 64v128c0 35 29 64 64 64h1664c35 0 64 -29 64 -64zM1792 576v-128c0 -35 -29 -64 -64 -64h-1664c-35 0 -64 29 -64 64v128c0 35 29 64 64 64h1664c35 0 64 -29 64 -64zM1792 960v-128
c0 -35 -29 -64 -64 -64h-1664c-35 0 -64 29 -64 64v128c0 35 29 64 64 64h1664c35 0 64 -29 64 -64zM1792 1344v-128c0 -35 -29 -64 -64 -64h-1664c-35 0 -64 29 -64 64v128c0 35 29 64 64 64h1664c35 0 64 -29 64 -64z" />
    <glyph glyph-name="list" unicode="&#xf03a;" horiz-adv-x="1792" 
d="M256 224v-192c0 -17 -15 -32 -32 -32h-192c-17 0 -32 15 -32 32v192c0 17 15 32 32 32h192c17 0 32 -15 32 -32zM256 608v-192c0 -17 -15 -32 -32 -32h-192c-17 0 -32 15 -32 32v192c0 17 15 32 32 32h192c17 0 32 -15 32 -32zM256 992v-192c0 -17 -15 -32 -32 -32h-192
c-17 0 -32 15 -32 32v192c0 17 15 32 32 32h192c17 0 32 -15 32 -32zM1792 224v-192c0 -17 -15 -32 -32 -32h-1344c-17 0 -32 15 -32 32v192c0 17 15 32 32 32h1344c17 0 32 -15 32 -32zM256 1376v-192c0 -17 -15 -32 -32 -32h-192c-17 0 -32 15 -32 32v192
c0 17 15 32 32 32h192c17 0 32 -15 32 -32zM1792 608v-192c0 -17 -15 -32 -32 -32h-1344c-17 0 -32 15 -32 32v192c0 17 15 32 32 32h1344c17 0 32 -15 32 -32zM1792 992v-192c0 -17 -15 -32 -32 -32h-1344c-17 0 -32 15 -32 32v192c0 17 15 32 32 32h1344
c17 0 32 -15 32 -32zM1792 1376v-192c0 -17 -15 -32 -32 -32h-1344c-17 0 -32 15 -32 32v192c0 17 15 32 32 32h1344c17 0 32 -15 32 -32z" />
    <glyph glyph-name="indent_left" unicode="&#xf03b;" horiz-adv-x="1792" 
d="M384 992v-576c0 -17 -15 -32 -32 -32c-8 0 -17 3 -23 9l-288 288c-6 6 -9 15 -9 23s3 17 9 23l288 288c6 6 15 9 23 9c17 0 32 -15 32 -32zM1792 224v-192c0 -17 -15 -32 -32 -32h-1728c-17 0 -32 15 -32 32v192c0 17 15 32 32 32h1728c17 0 32 -15 32 -32zM1792 608
v-192c0 -17 -15 -32 -32 -32h-1088c-17 0 -32 15 -32 32v192c0 17 15 32 32 32h1088c17 0 32 -15 32 -32zM1792 992v-192c0 -17 -15 -32 -32 -32h-1088c-17 0 -32 15 -32 32v192c0 17 15 32 32 32h1088c17 0 32 -15 32 -32zM1792 1376v-192c0 -17 -15 -32 -32 -32h-1728
c-17 0 -32 15 -32 32v192c0 17 15 32 32 32h1728c17 0 32 -15 32 -32z" />
    <glyph glyph-name="indent_right" unicode="&#xf03c;" horiz-adv-x="1792" 
d="M352 704c0 -8 -3 -17 -9 -23l-288 -288c-6 -6 -15 -9 -23 -9c-17 0 -32 15 -32 32v576c0 17 15 32 32 32c8 0 17 -3 23 -9l288 -288c6 -6 9 -15 9 -23zM1792 224v-192c0 -17 -15 -32 -32 -32h-1728c-17 0 -32 15 -32 32v192c0 17 15 32 32 32h1728c17 0 32 -15 32 -32z
M1792 608v-192c0 -17 -15 -32 -32 -32h-1088c-17 0 -32 15 -32 32v192c0 17 15 32 32 32h1088c17 0 32 -15 32 -32zM1792 992v-192c0 -17 -15 -32 -32 -32h-1088c-17 0 -32 15 -32 32v192c0 17 15 32 32 32h1088c17 0 32 -15 32 -32zM1792 1376v-192c0 -17 -15 -32 -32 -32
h-1728c-17 0 -32 15 -32 32v192c0 17 15 32 32 32h1728c17 0 32 -15 32 -32z" />
    <glyph glyph-name="facetime_video" unicode="&#xf03d;" horiz-adv-x="1792" 
d="M1792 1184v-1088c0 -26 -16 -49 -39 -59c-8 -3 -17 -5 -25 -5c-17 0 -33 6 -45 19l-403 403v-166c0 -159 -129 -288 -288 -288h-704c-159 0 -288 129 -288 288v704c0 159 129 288 288 288h704c159 0 288 -129 288 -288v-165l403 402c12 13 28 19 45 19c8 0 17 -2 25 -5
c23 -10 39 -33 39 -59z" />
    <glyph glyph-name="picture" unicode="&#xf03e;" horiz-adv-x="1920" 
d="M640 960c0 -106 -86 -192 -192 -192s-192 86 -192 192s86 192 192 192s192 -86 192 -192zM1664 576v-448h-1408v192l320 320l160 -160l512 512zM1760 1280h-1600c-17 0 -32 -15 -32 -32v-1216c0 -17 15 -32 32 -32h1600c17 0 32 15 32 32v1216c0 17 -15 32 -32 32z
M1920 1248v-1216c0 -88 -72 -160 -160 -160h-1600c-88 0 -160 72 -160 160v1216c0 88 72 160 160 160h1600v0c88 0 160 -72 160 -160z" />
    <glyph glyph-name="pencil" unicode="&#xf040;" 
d="M363 0l91 91l-235 235l-91 -91v-107h128v-128h107zM886 928c0 13 -9 22 -22 22c-6 0 -12 -2 -17 -7l-542 -542c-5 -5 -7 -11 -7 -17c0 -13 9 -22 22 -22c6 0 12 2 17 7l542 542c5 5 7 11 7 17zM832 1120l416 -416l-832 -832h-416v416zM1515 1024c0 -34 -14 -67 -37 -90
l-166 -166l-416 416l166 165c23 24 56 38 90 38s67 -14 91 -38l235 -234c23 -24 37 -57 37 -91z" />
    <glyph glyph-name="map_marker" unicode="&#xf041;" horiz-adv-x="1024" 
d="M768 896c0 141 -115 256 -256 256s-256 -115 -256 -256s115 -256 256 -256s256 115 256 256zM1024 896c0 -61 -7 -124 -33 -179l-364 -774c-21 -44 -67 -71 -115 -71s-94 27 -114 71l-365 774c-26 55 -33 118 -33 179c0 283 229 512 512 512s512 -229 512 -512z" />
    <glyph glyph-name="adjust" unicode="&#xf042;" 
d="M768 96v1088c-300 0 -544 -244 -544 -544s244 -544 544 -544zM1536 640c0 -424 -344 -768 -768 -768s-768 344 -768 768s344 768 768 768s768 -344 768 -768z" />
    <glyph glyph-name="tint" unicode="&#xf043;" horiz-adv-x="1024" 
d="M512 384c0 25 -8 49 -20 69c-13 20 -66 88 -87 155c-3 11 -13 16 -21 16s-18 -5 -21 -16c-21 -67 -74 -135 -87 -155c-12 -20 -20 -44 -20 -69c0 -71 57 -128 128 -128s128 57 128 128zM1024 512c0 -283 -229 -512 -512 -512s-512 229 -512 512c0 101 31 195 81 275
c51 80 265 351 346 621c13 43 53 64 85 64s73 -21 85 -64c81 -270 295 -541 346 -621s81 -174 81 -275z" />
    <glyph glyph-name="edit" unicode="&#xf044;" horiz-adv-x="1792" 
d="M888 352l116 116l-152 152l-116 -116v-56h96v-96h56zM1328 1072c-9 9 -24 8 -33 -1l-350 -350c-9 -9 -10 -24 -1 -33s24 -8 33 1l350 350c9 9 10 24 1 33zM1408 478v-190c0 -159 -129 -288 -288 -288h-832c-159 0 -288 129 -288 288v832c0 159 129 288 288 288h832
c40 0 80 -8 117 -25c9 -4 16 -13 18 -23c2 -11 -1 -21 -9 -29l-49 -49c-9 -9 -21 -12 -32 -8c-15 4 -30 6 -45 6h-832c-88 0 -160 -72 -160 -160v-832c0 -88 72 -160 160 -160h832c88 0 160 72 160 160v126c0 8 3 16 9 22l64 64c10 10 23 12 35 7s20 -16 20 -29zM1312 1216
l288 -288l-672 -672h-288v288zM1756 1084l-92 -92l-288 288l92 92c37 37 99 37 136 0l152 -152c37 -37 37 -99 0 -136z" />
    <glyph glyph-name="share" unicode="&#xf045;" horiz-adv-x="1664" 
d="M1408 547v-259c0 -159 -129 -288 -288 -288h-832c-159 0 -288 129 -288 288v832c0 159 129 288 288 288h255v0v0c17 0 32 -14 32 -32c0 -16 -11 -29 -26 -32c-50 -17 -95 -37 -133 -60c-5 -2 -10 -4 -16 -4h-112c-88 0 -160 -72 -160 -160v-832c0 -88 72 -160 160 -160
h832c88 0 160 72 160 160v214c0 12 7 23 18 29c20 9 38 22 54 37c9 9 23 13 35 8s21 -16 21 -29zM1645 1043l-384 -384c-12 -13 -28 -19 -45 -19c-8 0 -17 2 -25 5c-23 10 -39 33 -39 59v192h-160c-220 0 -360 -42 -438 -131c-81 -93 -105 -243 -74 -473
c2 -14 -7 -28 -20 -34c-4 -1 -8 -2 -12 -2c-10 0 -20 5 -26 13c-7 10 -166 235 -166 435c0 268 84 576 736 576h160v192c0 26 16 49 39 59c8 3 17 5 25 5c17 0 33 -7 45 -19l384 -384c25 -25 25 -65 0 -90z" />
    <glyph glyph-name="check" unicode="&#xf046;" horiz-adv-x="1664" 
d="M1408 606v-318c0 -159 -129 -288 -288 -288h-832c-159 0 -288 129 -288 288v832c0 159 129 288 288 288h832c40 0 80 -8 117 -25c9 -4 16 -13 18 -23c2 -11 -1 -21 -9 -29l-49 -49c-6 -6 -15 -10 -23 -10c-3 0 -6 1 -9 2c-15 4 -30 6 -45 6h-832
c-88 0 -160 -72 -160 -160v-832c0 -88 72 -160 160 -160h832c88 0 160 72 160 160v254c0 8 3 16 9 22l64 64c7 7 15 10 23 10c4 0 8 -1 12 -3c12 -5 20 -16 20 -29zM1639 1095l-814 -814c-32 -32 -82 -32 -114 0l-430 430c-32 32 -32 82 0 114l110 110c32 32 82 32 114 0
l263 -263l647 647c32 32 82 32 114 0l110 -110c32 -32 32 -82 0 -114z" />
    <glyph glyph-name="move" unicode="&#xf047;" horiz-adv-x="1792" 
d="M1792 640c0 -17 -7 -33 -19 -45l-256 -256c-12 -12 -28 -19 -45 -19c-35 0 -64 29 -64 64v128h-384v-384h128c35 0 64 -29 64 -64c0 -17 -7 -33 -19 -45l-256 -256c-12 -12 -28 -19 -45 -19s-33 7 -45 19l-256 256c-12 12 -19 28 -19 45c0 35 29 64 64 64h128v384h-384
v-128c0 -35 -29 -64 -64 -64c-17 0 -33 7 -45 19l-256 256c-12 12 -19 28 -19 45s7 33 19 45l256 256c12 12 28 19 45 19c35 0 64 -29 64 -64v-128h384v384h-128c-35 0 -64 29 -64 64c0 17 7 33 19 45l256 256c12 12 28 19 45 19s33 -7 45 -19l256 -256
c12 -12 19 -28 19 -45c0 -35 -29 -64 -64 -64h-128v-384h384v128c0 35 29 64 64 64c17 0 33 -7 45 -19l256 -256c12 -12 19 -28 19 -45z" />
    <glyph glyph-name="step_backward" unicode="&#xf048;" horiz-adv-x="1024" 
d="M979 1395c25 25 45 16 45 -19v-1472c0 -35 -20 -44 -45 -19l-710 710c-6 6 -10 12 -13 19v-678c0 -35 -29 -64 -64 -64h-128c-35 0 -64 29 -64 64v1408c0 35 29 64 64 64h128c35 0 64 -29 64 -64v-678c3 7 7 13 13 19z" />
    <glyph glyph-name="fast_backward" unicode="&#xf049;" horiz-adv-x="1792" 
d="M1747 1395c25 25 45 16 45 -19v-1472c0 -35 -20 -44 -45 -19l-710 710c-6 6 -10 12 -13 19v-710c0 -35 -20 -44 -45 -19l-710 710c-6 6 -10 12 -13 19v-678c0 -35 -29 -64 -64 -64h-128c-35 0 -64 29 -64 64v1408c0 35 29 64 64 64h128c35 0 64 -29 64 -64v-678
c3 7 7 13 13 19l710 710c25 25 45 16 45 -19v-710c3 7 7 13 13 19z" />
    <glyph glyph-name="backward" unicode="&#xf04a;" horiz-adv-x="1664" 
d="M1619 1395c25 25 45 16 45 -19v-1472c0 -35 -20 -44 -45 -19l-710 710c-6 6 -10 12 -13 19v-710c0 -35 -20 -44 -45 -19l-710 710c-25 25 -25 65 0 90l710 710c25 25 45 16 45 -19v-710c3 7 7 13 13 19z" />
    <glyph glyph-name="play" unicode="&#xf04b;" horiz-adv-x="1408" 
d="M1384 609l-1328 -738c-31 -17 -56 -2 -56 33v1472c0 35 25 50 56 33l1328 -738c31 -17 31 -45 0 -62z" />
    <glyph glyph-name="pause" unicode="&#xf04c;" 
d="M1536 1344v-1408c0 -35 -29 -64 -64 -64h-512c-35 0 -64 29 -64 64v1408c0 35 29 64 64 64h512c35 0 64 -29 64 -64zM640 1344v-1408c0 -35 -29 -64 -64 -64h-512c-35 0 -64 29 -64 64v1408c0 35 29 64 64 64h512c35 0 64 -29 64 -64z" />
    <glyph glyph-name="stop" unicode="&#xf04d;" 
d="M1536 1344v-1408c0 -35 -29 -64 -64 -64h-1408c-35 0 -64 29 -64 64v1408c0 35 29 64 64 64h1408c35 0 64 -29 64 -64z" />
    <glyph glyph-name="forward" unicode="&#xf04e;" horiz-adv-x="1664" 
d="M45 -115c-25 -25 -45 -16 -45 19v1472c0 35 20 44 45 19l710 -710c6 -6 10 -12 13 -19v710c0 35 20 44 45 19l710 -710c25 -25 25 -65 0 -90l-710 -710c-25 -25 -45 -16 -45 19v710c-3 -7 -7 -13 -13 -19z" />
    <glyph glyph-name="fast_forward" unicode="&#xf050;" horiz-adv-x="1792" 
d="M45 -115c-25 -25 -45 -16 -45 19v1472c0 35 20 44 45 19l710 -710c6 -6 10 -12 13 -19v710c0 35 20 44 45 19l710 -710c6 -6 10 -12 13 -19v678c0 35 29 64 64 64h128c35 0 64 -29 64 -64v-1408c0 -35 -29 -64 -64 -64h-128c-35 0 -64 29 -64 64v678
c-3 -7 -7 -13 -13 -19l-710 -710c-25 -25 -45 -16 -45 19v710c-3 -7 -7 -13 -13 -19z" />
    <glyph glyph-name="step_forward" unicode="&#xf051;" horiz-adv-x="1024" 
d="M45 -115c-25 -25 -45 -16 -45 19v1472c0 35 20 44 45 19l710 -710c6 -6 10 -12 13 -19v678c0 35 29 64 64 64h128c35 0 64 -29 64 -64v-1408c0 -35 -29 -64 -64 -64h-128c-35 0 -64 29 -64 64v678c-3 -7 -7 -13 -13 -19z" />
    <glyph glyph-name="eject" unicode="&#xf052;" horiz-adv-x="1538" 
d="M14 557l710 710c25 25 65 25 90 0l710 -710c25 -25 16 -45 -19 -45h-1472c-35 0 -44 20 -19 45zM1473 0h-1408c-35 0 -64 29 -64 64v256c0 35 29 64 64 64h1408c35 0 64 -29 64 -64v-256c0 -35 -29 -64 -64 -64z" />
    <glyph glyph-name="chevron_left" unicode="&#xf053;" horiz-adv-x="1280" 
d="M1171 1235l-531 -531l531 -531c25 -25 25 -65 0 -90l-166 -166c-25 -25 -65 -25 -90 0l-742 742c-25 25 -25 65 0 90l742 742c25 25 65 25 90 0l166 -166c25 -25 25 -65 0 -90z" />
    <glyph glyph-name="chevron_right" unicode="&#xf054;" horiz-adv-x="1280" 
d="M1107 659l-742 -742c-25 -25 -65 -25 -90 0l-166 166c-25 25 -25 65 0 90l531 531l-531 531c-25 25 -25 65 0 90l166 166c25 25 65 25 90 0l742 -742c25 -25 25 -65 0 -90z" />
    <glyph glyph-name="plus_sign" unicode="&#xf055;" 
d="M1216 576v128c0 35 -29 64 -64 64h-256v256c0 35 -29 64 -64 64h-128c-35 0 -64 -29 -64 -64v-256h-256c-35 0 -64 -29 -64 -64v-128c0 -35 29 -64 64 -64h256v-256c0 -35 29 -64 64 -64h128c35 0 64 29 64 64v256h256c35 0 64 29 64 64zM1536 640
c0 -424 -344 -768 -768 -768s-768 344 -768 768s344 768 768 768s768 -344 768 -768z" />
    <glyph glyph-name="minus_sign" unicode="&#xf056;" 
d="M1216 576v128c0 35 -29 64 -64 64h-768c-35 0 -64 -29 -64 -64v-128c0 -35 29 -64 64 -64h768c35 0 64 29 64 64zM1536 640c0 -424 -344 -768 -768 -768s-768 344 -768 768s344 768 768 768s768 -344 768 -768z" />
    <glyph glyph-name="remove_sign" unicode="&#xf057;" 
d="M1149 414c0 17 -7 33 -19 45l-181 181l181 181c12 12 19 28 19 45s-7 34 -19 46l-90 90c-12 12 -29 19 -46 19s-33 -7 -45 -19l-181 -181l-181 181c-12 12 -28 19 -45 19s-34 -7 -46 -19l-90 -90c-12 -12 -19 -29 -19 -46s7 -33 19 -45l181 -181l-181 -181
c-12 -12 -19 -28 -19 -45s7 -34 19 -46l90 -90c12 -12 29 -19 46 -19s33 7 45 19l181 181l181 -181c12 -12 28 -19 45 -19s34 7 46 19l90 90c12 12 19 29 19 46zM1536 640c0 -424 -344 -768 -768 -768s-768 344 -768 768s344 768 768 768s768 -344 768 -768z" />
    <glyph glyph-name="ok_sign" unicode="&#xf058;" 
d="M1284 802c0 17 -6 34 -18 46l-91 90c-12 12 -28 19 -45 19s-33 -7 -45 -19l-408 -407l-226 226c-12 12 -28 19 -45 19s-33 -7 -45 -19l-91 -90c-12 -12 -18 -29 -18 -46s6 -33 18 -45l362 -362c12 -12 29 -19 45 -19c17 0 34 7 46 19l543 543c12 12 18 28 18 45z
M1536 640c0 -424 -344 -768 -768 -768s-768 344 -768 768s344 768 768 768s768 -344 768 -768z" />
    <glyph glyph-name="question_sign" unicode="&#xf059;" 
d="M896 160v192c0 18 -14 32 -32 32h-192c-18 0 -32 -14 -32 -32v-192c0 -18 14 -32 32 -32h192c18 0 32 14 32 32zM1152 832c0 183 -192 320 -364 320c-163 0 -285 -70 -371 -213c-9 -14 -5 -32 8 -42l132 -100c5 -4 12 -6 19 -6c9 0 19 4 25 12c47 60 67 78 86 92
c17 12 50 24 86 24c64 0 123 -41 123 -85c0 -52 -27 -78 -88 -106c-71 -32 -168 -115 -168 -212v-36c0 -18 14 -32 32 -32h192c18 0 32 14 32 32v0c0 23 29 72 76 99c76 43 180 101 180 253zM1536 640c0 -424 -344 -768 -768 -768s-768 344 -768 768s344 768 768 768
s768 -344 768 -768z" />
    <glyph glyph-name="info_sign" unicode="&#xf05a;" 
d="M1024 160v160c0 18 -14 32 -32 32h-96v512c0 18 -14 32 -32 32h-320c-18 0 -32 -14 -32 -32v-160c0 -18 14 -32 32 -32h96v-320h-96c-18 0 -32 -14 -32 -32v-160c0 -18 14 -32 32 -32h448c18 0 32 14 32 32zM896 1056v160c0 18 -14 32 -32 32h-192c-18 0 -32 -14 -32 -32
v-160c0 -18 14 -32 32 -32h192c18 0 32 14 32 32zM1536 640c0 -424 -344 -768 -768 -768s-768 344 -768 768s344 768 768 768s768 -344 768 -768z" />
    <glyph glyph-name="screenshot" unicode="&#xf05b;" 
d="M1197 512h-109c-35 0 -64 29 -64 64v128c0 35 29 64 64 64h109c-43 144 -157 258 -301 301v-109c0 -35 -29 -64 -64 -64h-128c-35 0 -64 29 -64 64v109c-144 -43 -258 -157 -301 -301h109c35 0 64 -29 64 -64v-128c0 -35 -29 -64 -64 -64h-109c43 -144 157 -258 301 -301
v109c0 35 29 64 64 64h128c35 0 64 -29 64 -64v-109c144 43 258 157 301 301zM1536 704v-128c0 -35 -29 -64 -64 -64h-143c-49 -215 -218 -384 -433 -433v-143c0 -35 -29 -64 -64 -64h-128c-35 0 -64 29 -64 64v143c-215 49 -384 218 -433 433h-143c-35 0 -64 29 -64 64v128
c0 35 29 64 64 64h143c49 215 218 384 433 433v143c0 35 29 64 64 64h128c35 0 64 -29 64 -64v-143c215 -49 384 -218 433 -433h143c35 0 64 -29 64 -64z" />
    <glyph glyph-name="remove_circle" unicode="&#xf05c;" 
d="M1097 457l-146 -146c-13 -13 -33 -13 -46 0l-137 137l-137 -137c-13 -13 -33 -13 -46 0l-146 146c-13 13 -13 33 0 46l137 137l-137 137c-13 13 -13 33 0 46l146 146c13 13 33 13 46 0l137 -137l137 137c13 13 33 13 46 0l146 -146c13 -13 13 -33 0 -46l-137 -137
l137 -137c13 -13 13 -33 0 -46zM1312 640c0 300 -244 544 -544 544s-544 -244 -544 -544s244 -544 544 -544s544 244 544 544zM1536 640c0 -424 -344 -768 -768 -768s-768 344 -768 768s344 768 768 768s768 -344 768 -768z" />
    <glyph glyph-name="ok_circle" unicode="&#xf05d;" 
d="M1171 723l-422 -422c-25 -25 -65 -25 -90 0l-294 294c-25 25 -25 65 0 90l102 102c25 25 65 25 90 0l147 -147l275 275c25 25 65 25 90 0l102 -102c25 -25 25 -65 0 -90zM1312 640c0 300 -244 544 -544 544s-544 -244 -544 -544s244 -544 544 -544s544 244 544 544z
M1536 640c0 -424 -344 -768 -768 -768s-768 344 -768 768s344 768 768 768s768 -344 768 -768z" />
    <glyph glyph-name="ban_circle" unicode="&#xf05e;" 
d="M1312 643c0 109 -32 210 -87 295l-754 -753c86 -56 188 -89 297 -89c300 0 544 245 544 547zM313 344l755 754c-86 58 -189 91 -300 91c-300 0 -544 -245 -544 -546c0 -111 33 -213 89 -299zM1536 643c0 -426 -344 -771 -768 -771s-768 345 -768 771
c0 425 344 770 768 770s768 -345 768 -770z" />
    <glyph glyph-name="arrow_left" unicode="&#xf060;" 
d="M1536 640v-128c0 -68 -45 -128 -117 -128h-704l293 -294c24 -23 38 -56 38 -90s-14 -67 -38 -90l-75 -76c-23 -23 -56 -37 -90 -37s-67 14 -91 37l-651 652c-23 23 -37 56 -37 90s14 67 37 91l651 650c24 24 57 38 91 38s66 -14 90 -38l75 -74c24 -24 38 -57 38 -91
s-14 -67 -38 -91l-293 -293h704c72 0 117 -60 117 -128z" />
    <glyph glyph-name="arrow_right" unicode="&#xf061;" 
d="M1472 576c0 -34 -13 -67 -37 -91l-651 -651c-24 -23 -57 -37 -91 -37s-66 14 -90 37l-75 75c-24 24 -38 57 -38 91s14 67 38 91l293 293h-704c-72 0 -117 60 -117 128v128c0 68 45 128 117 128h704l-293 294c-24 23 -38 56 -38 90s14 67 38 90l75 75c24 24 56 38 90 38
s67 -14 91 -38l651 -651c24 -23 37 -56 37 -90z" />
    <glyph glyph-name="arrow_up" unicode="&#xf062;" horiz-adv-x="1664" 
d="M1611 565c0 -34 -14 -66 -37 -90l-75 -75c-24 -24 -57 -38 -91 -38s-67 14 -90 38l-294 293v-704c0 -72 -60 -117 -128 -117h-128c-68 0 -128 45 -128 117v704l-294 -293c-23 -24 -56 -38 -90 -38s-67 14 -90 38l-75 75c-24 24 -38 56 -38 90s14 67 38 91l651 651
c23 24 56 37 90 37s67 -13 91 -37l651 -651c23 -24 37 -57 37 -91z" />
    <glyph glyph-name="arrow_down" unicode="&#xf063;" horiz-adv-x="1664" 
d="M1611 704c0 -34 -14 -67 -37 -90l-651 -652c-24 -23 -57 -37 -91 -37s-67 14 -90 37l-651 652c-24 23 -38 56 -38 90s14 67 38 91l74 75c24 23 57 37 91 37s67 -14 90 -37l294 -294v704c0 70 58 128 128 128h128c70 0 128 -58 128 -128v-704l294 294c23 23 56 37 90 37
s67 -14 91 -37l75 -75c23 -24 37 -57 37 -91z" />
    <glyph glyph-name="share_alt" unicode="&#xf064;" horiz-adv-x="1792" 
d="M1792 896c0 -17 -7 -33 -19 -45l-512 -512c-12 -12 -28 -19 -45 -19c-35 0 -64 29 -64 64v256h-224c-431 0 -714 -83 -714 -560c0 -41 2 -82 5 -123c1 -16 5 -34 5 -50c0 -19 -12 -35 -32 -35c-14 0 -21 7 -28 17c-15 21 -26 53 -37 76c-57 128 -127 311 -127 451
c0 112 11 227 53 333c139 345 547 403 875 403h224v256c0 35 29 64 64 64c17 0 33 -7 45 -19l512 -512c12 -12 19 -28 19 -45z" />
    <glyph glyph-name="resize_full" unicode="&#xf065;" 
d="M755 480c0 -8 -4 -17 -10 -23l-332 -332l144 -144c12 -12 19 -28 19 -45c0 -35 -29 -64 -64 -64h-448c-35 0 -64 29 -64 64v448c0 35 29 64 64 64c17 0 33 -7 45 -19l144 -144l332 332c6 6 15 10 23 10s17 -4 23 -10l114 -114c6 -6 10 -15 10 -23zM1536 1344v-448
c0 -35 -29 -64 -64 -64c-17 0 -33 7 -45 19l-144 144l-332 -332c-6 -6 -15 -10 -23 -10s-17 4 -23 10l-114 114c-6 6 -10 15 -10 23s4 17 10 23l332 332l-144 144c-12 12 -19 28 -19 45c0 35 29 64 64 64h448c35 0 64 -29 64 -64z" />
    <glyph glyph-name="resize_small" unicode="&#xf066;" 
d="M768 576v-448c0 -35 -29 -64 -64 -64c-17 0 -33 7 -45 19l-144 144l-332 -332c-6 -6 -15 -10 -23 -10s-17 4 -23 10l-114 114c-6 6 -10 15 -10 23s4 17 10 23l332 332l-144 144c-12 12 -19 28 -19 45c0 35 29 64 64 64h448c35 0 64 -29 64 -64zM1523 1248
c0 -8 -4 -17 -10 -23l-332 -332l144 -144c12 -12 19 -28 19 -45c0 -35 -29 -64 -64 -64h-448c-35 0 -64 29 -64 64v448c0 35 29 64 64 64c17 0 33 -7 45 -19l144 -144l332 332c6 6 15 10 23 10s17 -4 23 -10l114 -114c6 -6 10 -15 10 -23z" />
    <glyph glyph-name="exclamation_sign" unicode="&#xf06a;" 
d="M768 1408c424 0 768 -344 768 -768s-344 -768 -768 -768s-768 344 -768 768s344 768 768 768zM896 161v190c0 18 -14 33 -31 33h-192c-18 0 -33 -15 -33 -33v-190c0 -18 15 -33 33 -33h192c17 0 31 15 31 33zM894 505l18 621c0 7 -3 14 -10 18c-6 5 -15 8 -24 8h-220
c-9 0 -18 -3 -24 -8c-7 -4 -10 -11 -10 -18l17 -621c0 -14 15 -25 34 -25h185c18 0 33 11 34 25z" />
    <glyph glyph-name="gift" unicode="&#xf06b;" 
d="M928 180v56v468v192h-320v-192v-468v-56c0 -35 29 -52 64 -52h192c35 0 64 17 64 52zM472 1024h195l-126 161c-11 13 -35 31 -69 31c-53 0 -96 -43 -96 -96s43 -96 96 -96zM1160 1120c0 53 -43 96 -96 96c-34 0 -58 -18 -69 -31l-125 -161h194c53 0 96 43 96 96z
M1536 864v-320c0 -18 -14 -32 -32 -32h-96v-416c0 -53 -43 -96 -96 -96h-1088c-53 0 -96 43 -96 96v416h-96c-18 0 -32 14 -32 32v320c0 18 14 32 32 32h440c-124 0 -224 100 -224 224s100 224 224 224c67 0 129 -28 168 -77l128 -165l128 165c39 49 101 77 168 77
c124 0 224 -100 224 -224s-100 -224 -224 -224h440c18 0 32 -14 32 -32z" />
    <glyph glyph-name="leaf" unicode="&#xf06c;" horiz-adv-x="1792" 
d="M1280 832c0 35 -29 64 -64 64c-354 0 -582 -148 -813 -403c-12 -13 -19 -27 -19 -45c0 -35 29 -64 64 -64c18 0 32 7 45 19c49 44 93 92 141 137c181 163 336 228 582 228c35 0 64 29 64 64zM1792 1030c0 -64 -7 -129 -20 -193c-64 -311 -264 -513 -542 -651
c-135 -68 -286 -108 -438 -108c-96 0 -195 16 -286 47c-48 16 -144 79 -184 79c-50 0 -110 -204 -197 -204c-63 0 -82 31 -109 77c-9 17 -16 23 -16 44c0 104 198 185 198 243c0 9 -26 62 -30 82c-6 34 -9 69 -9 104c0 318 253 545 537 639c205 68 641 -11 780 121
c55 51 82 98 166 98c113 0 150 -293 150 -378z" />
    <glyph glyph-name="fire" unicode="&#xf06d;" horiz-adv-x="1408" 
d="M1408 -160v-64c0 -17 -15 -32 -32 -32h-1344c-17 0 -32 15 -32 32v64c0 17 15 32 32 32h1344c17 0 32 -15 32 -32zM1152 896c0 -383 -448 -417 -448 -672c0 -70 35 -163 67 -224l-4 1l1 -1c-276 127 -512 302 -512 640c0 383 448 417 448 672c0 70 -35 163 -66 224l3 -1
l-1 1c276 -127 512 -302 512 -640z" />
    <glyph glyph-name="eye_open" unicode="&#xf06e;" horiz-adv-x="1792" 
d="M1664 576c-95 147 -225 273 -381 353c40 -68 61 -146 61 -225c0 -247 -201 -448 -448 -448s-448 201 -448 448c0 79 21 157 61 225c-156 -80 -286 -206 -381 -353c171 -264 447 -448 768 -448s597 184 768 448zM944 960c0 26 -22 48 -48 48c-167 0 -304 -137 -304 -304
c0 -26 22 -48 48 -48s48 22 48 48c0 114 94 208 208 208c26 0 48 22 48 48zM1792 576c0 -25 -8 -48 -20 -69c-184 -303 -521 -507 -876 -507s-692 205 -876 507c-12 21 -20 44 -20 69s8 48 20 69c184 302 521 507 876 507s692 -205 876 -507c12 -21 20 -44 20 -69z" />
    <glyph glyph-name="eye_close" unicode="&#xf070;" horiz-adv-x="1792" 
d="M555 201l78 141c-116 84 -185 219 -185 362c0 79 21 157 61 225c-156 -80 -286 -206 -381 -353c104 -161 251 -296 427 -375zM944 960c0 26 -22 48 -48 48c-167 0 -304 -137 -304 -304c0 -26 22 -48 48 -48s48 22 48 48c0 115 94 208 208 208c26 0 48 22 48 48z
M1307 1151c0 -2 0 -7 -1 -9c-211 -377 -420 -756 -631 -1133l-49 -89c-6 -10 -17 -16 -28 -16c-18 0 -113 58 -134 70c-10 6 -16 16 -16 28c0 16 34 70 44 87c-194 88 -357 238 -472 418c-13 20 -20 44 -20 69c0 24 7 49 20 69c198 304 507 507 876 507c60 0 121 -6 180 -17
l54 97c6 10 16 16 28 16c18 0 112 -58 133 -70c10 -6 16 -16 16 -27zM1344 704c0 -186 -115 -352 -288 -418l280 502c5 -28 8 -56 8 -84zM1792 576c0 -26 -7 -47 -20 -69c-31 -51 -70 -100 -109 -145c-196 -225 -466 -362 -767 -362l74 132c291 25 538 202 694 444
c-74 115 -169 216 -282 294l63 112c124 -83 249 -208 327 -337c13 -22 20 -43 20 -69z" />
    <glyph glyph-name="warning_sign" unicode="&#xf071;" horiz-adv-x="1792" 
d="M1024 161v190c0 18 -14 33 -32 33h-192c-18 0 -32 -15 -32 -33v-190c0 -18 14 -33 32 -33h192c18 0 32 15 32 33zM1022 535l18 459c0 6 -3 14 -10 19c-6 5 -15 11 -24 11h-220c-9 0 -18 -6 -24 -11c-7 -5 -10 -15 -10 -21l17 -457c0 -13 15 -23 34 -23h185
c18 0 33 10 34 23zM1008 1469l768 -1408c22 -39 21 -87 -2 -126s-65 -63 -110 -63h-1536c-45 0 -87 24 -110 63s-24 87 -2 126l768 1408c22 41 65 67 112 67s90 -26 112 -67z" />
    <glyph glyph-name="plane" unicode="&#xf072;" horiz-adv-x="1408" 
d="M1376 1376c64 -64 0 -224 -96 -320l-161 -161l160 -696c3 -12 -2 -25 -12 -33l-128 -96c-5 -4 -12 -6 -19 -6c-2 0 -4 0 -7 1c-9 2 -17 7 -21 16l-279 508l-259 -259l53 -194c3 -11 0 -22 -8 -31l-96 -96c-6 -6 -15 -9 -23 -9h-2c-10 1 -18 5 -24 13l-189 252l-252 189
c-8 5 -12 14 -13 23s3 18 9 25l96 97c6 6 15 9 23 9c3 0 6 0 8 -1l194 -53l259 259l-508 279c-9 5 -15 14 -17 24c-1 9 2 20 9 27l128 128c8 7 20 11 30 8l665 -159l160 160c96 96 256 160 320 96z" />
    <glyph glyph-name="calendar" unicode="&#xf073;" horiz-adv-x="1664" 
d="M128 -128h288v288h-288v-288zM480 -128h320v288h-320v-288zM128 224h288v320h-288v-320zM480 224h320v320h-320v-320zM128 608h288v288h-288v-288zM864 -128h320v288h-320v-288zM480 608h320v288h-320v-288zM1248 -128h288v288h-288v-288zM864 224h320v320h-320v-320z
M512 1088v288c0 17 -15 32 -32 32h-64c-17 0 -32 -15 -32 -32v-288c0 -17 15 -32 32 -32h64c17 0 32 15 32 32zM1248 224h288v320h-288v-320zM864 608h320v288h-320v-288zM1248 608h288v288h-288v-288zM1280 1088v288c0 17 -15 32 -32 32h-64c-17 0 -32 -15 -32 -32v-288
c0 -17 15 -32 32 -32h64c17 0 32 15 32 32zM1664 1152v-1280c0 -70 -58 -128 -128 -128h-1408c-70 0 -128 58 -128 128v1280c0 70 58 128 128 128h128v96c0 88 72 160 160 160h64c88 0 160 -72 160 -160v-96h384v96c0 88 72 160 160 160h64c88 0 160 -72 160 -160v-96h128
c70 0 128 -58 128 -128z" />
    <glyph glyph-name="random" unicode="&#xf074;" horiz-adv-x="1792" 
d="M666 1055c-56 -86 -97 -179 -137 -273c-58 121 -122 242 -273 242h-224c-18 0 -32 14 -32 32v192c0 18 14 32 32 32h224c178 0 309 -83 410 -225zM1792 256c0 -8 -3 -17 -9 -23l-320 -320c-6 -6 -15 -9 -23 -9c-17 0 -32 15 -32 32v192c-297 0 -480 -35 -665 225
c55 86 96 179 136 273c58 -121 122 -242 273 -242h256v192c0 18 14 32 32 32c9 0 17 -4 24 -10l319 -319c6 -6 9 -15 9 -23zM1792 1152c0 -8 -3 -17 -9 -23l-320 -320c-6 -6 -15 -9 -23 -9c-17 0 -32 14 -32 32v192h-256c-133 0 -196 -91 -252 -199
c-29 -56 -54 -114 -78 -171c-111 -258 -241 -526 -566 -526h-224c-18 0 -32 14 -32 32v192c0 18 14 32 32 32h224c133 0 196 91 252 199c29 56 54 114 78 171c111 258 241 526 566 526h256v192c0 18 14 32 32 32c9 0 17 -4 24 -10l319 -319c6 -6 9 -15 9 -23z" />
    <glyph glyph-name="comment" unicode="&#xf075;" horiz-adv-x="1792" 
d="M1792 640c0 -354 -401 -640 -896 -640c-49 0 -98 3 -145 8c-131 -116 -287 -198 -460 -242c-36 -10 -75 -17 -114 -22c-22 -2 -43 14 -48 38v1c-5 25 12 40 27 58c63 71 135 131 182 298c-206 117 -338 298 -338 501c0 353 401 640 896 640s896 -286 896 -640z" />
    <glyph glyph-name="magnet" unicode="&#xf076;" 
d="M1536 704v-128c0 -408 -323 -704 -768 -704s-768 296 -768 704v128c0 35 29 64 64 64h384c35 0 64 -29 64 -64v-128c0 -183 213 -192 256 -192s256 9 256 192v128c0 35 29 64 64 64h384c35 0 64 -29 64 -64zM512 1344v-384c0 -35 -29 -64 -64 -64h-384
c-35 0 -64 29 -64 64v384c0 35 29 64 64 64h384c35 0 64 -29 64 -64zM1536 1344v-384c0 -35 -29 -64 -64 -64h-384c-35 0 -64 29 -64 64v384c0 35 29 64 64 64h384c35 0 64 -29 64 -64z" />
    <glyph glyph-name="chevron_up" unicode="&#xf077;" horiz-adv-x="1792" 
d="M1683 205l-166 -165c-25 -25 -65 -25 -90 0l-531 531l-531 -531c-25 -25 -65 -25 -90 0l-166 165c-25 25 -25 66 0 91l742 741c25 25 65 25 90 0l742 -741c25 -25 25 -66 0 -91z" />
    <glyph glyph-name="chevron_down" unicode="&#xf078;" horiz-adv-x="1792" 
d="M1683 728l-742 -741c-25 -25 -65 -25 -90 0l-742 741c-25 25 -25 66 0 91l166 165c25 25 65 25 90 0l531 -531l531 531c25 25 65 25 90 0l166 -165c25 -25 25 -66 0 -91z" />
    <glyph glyph-name="retweet" unicode="&#xf079;" horiz-adv-x="1920" 
d="M1280 32c0 -17 -15 -32 -32 -32h-960c-37 0 -32 39 -32 64v160v416h-192c-35 0 -64 29 -64 64c0 15 5 30 15 41l320 384c12 14 30 22 49 22s37 -8 49 -22l320 -384c10 -11 15 -26 15 -41c0 -35 -29 -64 -64 -64h-192v-384h576c9 0 19 -4 25 -11l160 -192
c4 -6 7 -14 7 -21zM1920 448c0 -15 -5 -30 -15 -41l-320 -384c-12 -14 -30 -23 -49 -23s-37 9 -49 23l-320 384c-10 11 -15 26 -15 41c0 35 29 64 64 64h192v384h-576c-9 0 -19 4 -25 12l-160 192c-4 5 -7 13 -7 20c0 17 15 32 32 32h960c37 0 32 -39 32 -64v-160v-416h192
c35 0 64 -29 64 -64z" />
    <glyph glyph-name="shopping_cart" unicode="&#xf07a;" horiz-adv-x="1664" 
d="M640 0c0 -70 -58 -128 -128 -128s-128 58 -128 128s58 128 128 128s128 -58 128 -128zM1536 0c0 -70 -58 -128 -128 -128s-128 58 -128 128s58 128 128 128s128 -58 128 -128zM1664 1088v-512c0 -32 -25 -60 -57 -64l-1044 -122c5 -23 13 -46 13 -70
c0 -23 -14 -44 -24 -64h920c35 0 64 -29 64 -64s-29 -64 -64 -64h-1024c-35 0 -64 29 -64 64c0 31 45 106 61 137l-177 823h-204c-35 0 -64 29 -64 64s29 64 64 64h256c67 0 69 -80 79 -128h1201c35 0 64 -29 64 -64z" />
    <glyph glyph-name="folder_close" unicode="&#xf07b;" horiz-adv-x="1664" 
d="M1664 928v-704c0 -123 -101 -224 -224 -224h-1216c-123 0 -224 101 -224 224v960c0 123 101 224 224 224h320c123 0 224 -101 224 -224v-32h672c123 0 224 -101 224 -224z" />
    <glyph glyph-name="folder_open" unicode="&#xf07c;" horiz-adv-x="1920" 
d="M1879 584c0 -24 -15 -48 -31 -66l-336 -396c-58 -68 -176 -122 -264 -122h-1088c-36 0 -87 11 -87 56c0 24 15 48 31 66l336 396c58 68 176 122 264 122h1088c36 0 87 -11 87 -56zM1536 928v-160h-832c-125 0 -280 -71 -361 -167l-337 -396l-5 -6c0 8 -1 17 -1 25v960
c0 123 101 224 224 224h320c123 0 224 -101 224 -224v-32h544c123 0 224 -101 224 -224z" />
    <glyph glyph-name="resize_vertical" unicode="&#xf07d;" horiz-adv-x="768" 
d="M704 1216c0 -35 -29 -64 -64 -64h-128v-1024h128c35 0 64 -29 64 -64c0 -17 -7 -33 -19 -45l-256 -256c-12 -12 -28 -19 -45 -19s-33 7 -45 19l-256 256c-12 12 -19 28 -19 45c0 35 29 64 64 64h128v1024h-128c-35 0 -64 29 -64 64c0 17 7 33 19 45l256 256
c12 12 28 19 45 19s33 -7 45 -19l256 -256c12 -12 19 -28 19 -45z" />
    <glyph glyph-name="resize_horizontal" unicode="&#xf07e;" horiz-adv-x="1792" 
d="M1792 640c0 -17 -7 -33 -19 -45l-256 -256c-12 -12 -28 -19 -45 -19c-35 0 -64 29 -64 64v128h-1024v-128c0 -35 -29 -64 -64 -64c-17 0 -33 7 -45 19l-256 256c-12 12 -19 28 -19 45s7 33 19 45l256 256c12 12 28 19 45 19c35 0 64 -29 64 -64v-128h1024v128
c0 35 29 64 64 64c17 0 33 -7 45 -19l256 -256c12 -12 19 -28 19 -45z" />
    <glyph glyph-name="bar_chart" unicode="&#xf080;" horiz-adv-x="2048" 
d="M640 640v-512h-256v512h256zM1024 1152v-1024h-256v1024h256zM2048 0v-128h-2048v1536h128v-1408h1920zM1408 896v-768h-256v768h256zM1792 1280v-1152h-256v1152h256z" />
    <glyph glyph-name="twitter_sign" unicode="&#xf081;" 
d="M1280 926c-38 -17 -78 -28 -121 -34c44 26 77 68 93 117c-41 -24 -86 -42 -134 -51c-38 41 -93 66 -153 66c-116 0 -210 -94 -210 -210c0 -16 1 -33 5 -48c-175 9 -330 92 -434 220c-18 -31 -29 -68 -29 -106c0 -73 34 -137 91 -175c-35 1 -68 11 -100 26v-2
c0 -102 77 -187 173 -206c-18 -5 -32 -8 -51 -8c-13 0 -26 2 -39 4c27 -83 104 -144 196 -146c-72 -56 -162 -90 -261 -90c-17 0 -34 1 -50 3c93 -59 203 -94 322 -94c386 0 598 320 598 598c0 9 0 18 -1 27c41 29 77 66 105 109zM1536 1120v-960
c0 -159 -129 -288 -288 -288h-960c-159 0 -288 129 -288 288v960c0 159 129 288 288 288h960c159 0 288 -129 288 -288z" />
    <glyph glyph-name="facebook_sign" unicode="&#xf082;" 
d="M1248 1408c159 0 288 -129 288 -288v-960c0 -159 -129 -288 -288 -288h-188v595h199l30 232h-229v148c0 67 18 112 115 112l122 1v207c-21 3 -94 9 -178 9c-177 0 -299 -108 -299 -306v-171h-200v-232h200v-595h-532c-159 0 -288 129 -288 288v960c0 159 129 288 288 288
h960z" />
    <glyph glyph-name="camera_retro" unicode="&#xf083;" horiz-adv-x="1792" 
d="M928 704c0 18 -14 32 -32 32c-88 0 -160 -72 -160 -160c0 -18 14 -32 32 -32s32 14 32 32c0 53 43 96 96 96c18 0 32 14 32 32zM1152 574c0 -141 -115 -256 -256 -256s-256 115 -256 256s115 256 256 256s256 -115 256 -256zM128 0h1536v128h-1536v-128zM1280 574
c0 212 -172 384 -384 384s-384 -172 -384 -384s172 -384 384 -384s384 172 384 384zM256 1216h384v128h-384v-128zM128 1024h1536v118v138h-828l-64 -128h-644v-128zM1792 1280v-1280c0 -71 -57 -128 -128 -128h-1536c-71 0 -128 57 -128 128v1280c0 71 57 128 128 128h1536
c71 0 128 -57 128 -128z" />
    <glyph glyph-name="key" unicode="&#xf084;" horiz-adv-x="1792" 
d="M832 1024c0 106 -86 192 -192 192s-192 -86 -192 -192c0 -29 7 -57 19 -83c-26 12 -54 19 -83 19c-106 0 -192 -86 -192 -192s86 -192 192 -192s192 86 192 192c0 29 -7 57 -19 83c26 -12 54 -19 83 -19c106 0 192 86 192 192zM1683 320c0 -23 -92 -115 -115 -115
c-26 0 -107 94 -128 115l-96 -96l220 -220c18 -18 28 -43 28 -68c0 -56 -64 -120 -120 -120c-25 0 -50 10 -68 28l-671 671c-105 -78 -233 -131 -365 -131c-218 0 -368 151 -368 368c0 328 328 656 656 656c217 0 368 -150 368 -368c0 -132 -53 -260 -131 -365l355 -355
l96 96c-21 21 -115 102 -115 128c0 23 92 115 115 115c8 0 17 -4 23 -10c37 -37 316 -300 316 -329z" />
    <glyph glyph-name="cogs" unicode="&#xf085;" horiz-adv-x="1920" 
d="M896 640c0 141 -115 256 -256 256s-256 -115 -256 -256s115 -256 256 -256s256 115 256 256zM1664 128c0 70 -58 128 -128 128s-128 -58 -128 -128c0 -71 58 -128 128 -128c71 0 128 58 128 128zM1664 1152c0 70 -58 128 -128 128s-128 -58 -128 -128
c0 -71 58 -128 128 -128c71 0 128 58 128 128zM1280 731v-185c0 -13 -10 -28 -23 -30l-155 -24c-8 -26 -19 -51 -32 -76c28 -40 58 -77 90 -115c4 -6 7 -12 7 -20c0 -7 -2 -14 -7 -19c-20 -27 -132 -149 -161 -149c-8 0 -15 3 -21 7l-115 90c-25 -13 -50 -23 -77 -31
c-5 -51 -10 -106 -23 -155c-4 -14 -16 -24 -30 -24h-186c-14 0 -28 11 -30 25l-23 153c-26 8 -51 19 -75 31l-118 -89c-5 -5 -13 -7 -20 -7c-8 0 -15 3 -21 8c-26 24 -144 131 -144 160c0 7 3 13 7 19c29 38 59 75 88 114c-14 27 -26 54 -35 82l-152 24c-14 2 -24 15 -24 29
v185c0 13 10 28 23 30l155 24c8 26 19 51 32 76c-28 40 -58 77 -90 115c-4 6 -7 13 -7 20s2 14 7 20c20 27 132 148 161 148c8 0 15 -3 21 -7l115 -90c25 13 50 23 77 32c5 50 10 105 23 154c4 14 16 24 30 24h186c14 0 28 -11 30 -25l23 -153c26 -8 51 -19 75 -31l118 89
c6 5 13 7 20 7c8 0 15 -3 21 -8c26 -24 144 -132 144 -160c0 -7 -3 -13 -7 -19c-29 -39 -59 -75 -87 -114c13 -27 25 -54 34 -82l152 -23c14 -3 24 -16 24 -30zM1920 198v-140c0 -15 -129 -29 -149 -31c-8 -19 -18 -36 -30 -52c9 -20 51 -120 51 -138c0 -3 -1 -5 -4 -7
c-12 -7 -119 -71 -124 -71c-13 0 -88 100 -98 115c-10 -1 -20 -2 -30 -2s-20 1 -30 2c-10 -15 -85 -115 -98 -115c-5 0 -112 64 -124 71c-3 2 -4 5 -4 7c0 17 42 118 51 138c-12 16 -22 33 -30 52c-20 2 -149 16 -149 31v140c0 15 129 29 149 31c8 18 18 36 30 52
c-9 20 -51 121 -51 138c0 2 1 5 4 7c12 6 119 70 124 70c13 0 88 -99 98 -114c10 1 20 2 30 2s20 -1 30 -2c28 39 58 78 92 112l6 2c5 0 112 -63 124 -70c3 -2 4 -5 4 -7c0 -18 -42 -118 -51 -138c12 -16 22 -34 30 -52c20 -2 149 -16 149 -31zM1920 1222v-140
c0 -15 -129 -29 -149 -31c-8 -19 -18 -36 -30 -52c9 -20 51 -120 51 -138c0 -3 -1 -5 -4 -7c-12 -7 -119 -71 -124 -71c-13 0 -88 100 -98 115c-10 -1 -20 -2 -30 -2s-20 1 -30 2c-10 -15 -85 -115 -98 -115c-5 0 -112 64 -124 71c-3 2 -4 5 -4 7c0 17 42 118 51 138
c-12 16 -22 33 -30 52c-20 2 -149 16 -149 31v140c0 15 129 29 149 31c8 18 18 36 30 52c-9 20 -51 121 -51 138c0 2 1 5 4 7c12 6 119 70 124 70c13 0 88 -99 98 -114c10 1 20 2 30 2s20 -1 30 -2c28 39 58 78 92 112l6 2c5 0 112 -63 124 -70c3 -2 4 -5 4 -7
c0 -18 -42 -118 -51 -138c12 -16 22 -34 30 -52c20 -2 149 -16 149 -31z" />
    <glyph glyph-name="comments" unicode="&#xf086;" horiz-adv-x="1792" 
d="M1408 768c0 -283 -315 -512 -704 -512c-61 0 -120 6 -176 16c-83 -59 -177 -102 -278 -128c-27 -7 -56 -12 -86 -16h-3c-15 0 -29 12 -32 29v0c-4 19 9 31 20 44c39 44 83 83 117 166c-162 94 -266 239 -266 401c0 283 315 512 704 512s704 -229 704 -512zM1792 512
c0 -163 -104 -307 -266 -401c34 -83 78 -122 117 -166c11 -13 24 -25 20 -44v0c-4 -18 -19 -31 -35 -29c-30 4 -59 9 -86 16c-101 26 -195 69 -278 128c-56 -10 -115 -16 -176 -16c-181 0 -347 50 -472 132c29 -2 59 -4 88 -4c215 0 418 62 573 174c167 122 259 287 259 466
c0 52 -8 103 -23 152c169 -93 279 -241 279 -408z" />
    <glyph glyph-name="thumbs_up_alt" unicode="&#xf087;" 
d="M256 192c0 35 -29 64 -64 64s-64 -29 -64 -64s29 -64 64 -64s64 29 64 64zM1408 768c0 68 -61 128 -128 128h-352c0 117 96 202 96 320c0 117 -23 192 -160 192c-64 -65 -31 -218 -128 -320c-28 -29 -52 -60 -77 -91c-45 -58 -164 -229 -243 -229h-32v-640h32
c56 0 148 -36 202 -55c110 -38 224 -73 342 -73h121c113 0 192 45 192 167c0 19 -2 38 -5 56c42 23 65 80 65 126c0 24 -6 48 -18 69c34 32 53 72 53 119c0 32 -14 79 -35 103c47 1 75 91 75 128zM1536 769c0 -58 -17 -115 -49 -163c6 -22 9 -46 9 -69
c0 -50 -13 -100 -38 -144c2 -14 3 -29 3 -43c0 -64 -21 -128 -60 -178c2 -189 -127 -300 -312 -300h-36h-93c-142 0 -274 42 -406 88c-29 10 -110 40 -138 40h-288c-71 0 -128 57 -128 128v640c0 71 57 128 128 128h274c39 26 107 116 137 155c34 44 69 87 107 128
c60 64 28 222 128 320c24 23 56 37 90 37c104 0 204 -37 253 -134c31 -61 35 -119 35 -186c0 -70 -18 -130 -48 -192h176c138 0 256 -117 256 -255z" />
    <glyph glyph-name="thumbs_down_alt" unicode="&#xf088;" 
d="M256 1088c0 35 -29 64 -64 64s-64 -29 -64 -64s29 -64 64 -64s64 29 64 64zM1408 512c0 37 -28 127 -75 128c21 24 35 71 35 103c0 47 -19 87 -53 119c12 21 18 45 18 69c0 46 -23 103 -65 126c3 18 5 37 5 56c0 117 -74 167 -185 167h-128c-118 0 -232 -35 -342 -73
c-54 -19 -146 -55 -202 -55h-32v-640h32c79 0 198 -171 243 -229c25 -31 49 -62 77 -91c97 -102 64 -255 128 -320c137 0 160 75 160 192c0 118 -96 203 -96 320h352c67 0 128 60 128 128zM1536 511c0 -138 -118 -255 -256 -255h-176c30 -62 48 -122 48 -192
c0 -66 -4 -126 -35 -186c-49 -97 -149 -134 -253 -134c-34 0 -66 14 -90 37c-100 98 -69 256 -128 321c-38 40 -73 83 -107 127c-30 39 -98 129 -137 155h-274c-71 0 -128 57 -128 128v640c0 71 57 128 128 128h288c28 0 109 30 138 40c144 50 269 88 423 88h112
c182 0 313 -108 312 -295v-5c39 -50 60 -114 60 -178c0 -14 -1 -29 -3 -43c25 -44 38 -94 38 -144c0 -23 -3 -47 -9 -69c32 -48 49 -105 49 -163z" />
    <glyph glyph-name="star_half" unicode="&#xf089;" horiz-adv-x="896" 
d="M832 1504v-1339v0l-449 -236c-13 -7 -26 -12 -40 -12c-29 0 -42 24 -42 50c0 7 1 13 2 20l86 500l-364 354c-12 13 -25 30 -25 48c0 30 31 42 56 46l502 73l225 455c9 19 26 41 49 41v0z" />
    <glyph glyph-name="heart_empty" unicode="&#xf08a;" horiz-adv-x="1792" 
d="M1664 940c0 281 -190 340 -350 340c-149 0 -317 -161 -369 -223c-24 -29 -74 -29 -98 0c-52 62 -220 223 -369 223c-160 0 -350 -59 -350 -340c0 -183 185 -353 187 -355l581 -560l580 559c3 3 188 173 188 356zM1792 940c0 -240 -220 -441 -229 -450l-623 -600
c-12 -12 -28 -18 -44 -18s-32 6 -44 18l-624 602c-8 7 -228 208 -228 448c0 293 179 468 478 468c175 0 339 -138 418 -216c79 78 243 216 418 216c299 0 478 -175 478 -468z" />
    <glyph glyph-name="signout" unicode="&#xf08b;" horiz-adv-x="1664" 
d="M640 96c0 -28 13 -96 -32 -96h-320c-159 0 -288 129 -288 288v704c0 159 129 288 288 288h320c17 0 32 -15 32 -32c0 -28 13 -96 -32 -96h-320c-88 0 -160 -72 -160 -160v-704c0 -88 72 -160 160 -160h288c25 0 64 5 64 -32zM1568 640c0 -17 -7 -33 -19 -45l-544 -544
c-12 -12 -28 -19 -45 -19c-35 0 -64 29 -64 64v288h-448c-35 0 -64 29 -64 64v384c0 35 29 64 64 64h448v288c0 35 29 64 64 64c17 0 33 -7 45 -19l544 -544c12 -12 19 -28 19 -45z" />
    <glyph glyph-name="linkedin_sign" unicode="&#xf08c;" 
d="M237 122h231v694h-231v-694zM483 1030c-1 68 -50 120 -129 120s-131 -52 -131 -120c0 -66 50 -120 128 -120h1v0c81 0 131 54 131 120zM1068 122h231v398c0 213 -114 312 -266 312c-124 0 -179 -69 -209 -117h2v101h-231s3 -65 0 -694v0h231v388c0 20 1 41 7 56
c17 41 55 84 119 84c83 0 116 -63 116 -157v-371zM1536 1120v-960c0 -159 -129 -288 -288 -288h-960c-159 0 -288 129 -288 288v960c0 159 129 288 288 288h960c159 0 288 -129 288 -288z" />
    <glyph glyph-name="pushpin" unicode="&#xf08d;" horiz-adv-x="1152" 
d="M480 672v448c0 18 -14 32 -32 32s-32 -14 -32 -32v-448c0 -18 14 -32 32 -32s32 14 32 32zM1152 320c0 -35 -29 -64 -64 -64h-429l-51 -483c-2 -16 -15 -29 -31 -29h-1c-16 0 -29 11 -32 27l-76 485h-404c-35 0 -64 29 -64 64c0 164 124 320 256 320v512
c-70 0 -128 58 -128 128s58 128 128 128h640c70 0 128 -58 128 -128s-58 -128 -128 -128v-512c132 0 256 -156 256 -320z" />
    <glyph glyph-name="external_link" unicode="&#xf08e;" horiz-adv-x="1792" 
d="M1408 608v-320c0 -159 -129 -288 -288 -288h-832c-159 0 -288 129 -288 288v832c0 159 129 288 288 288h704c18 0 32 -14 32 -32v-64c0 -18 -14 -32 -32 -32h-704c-88 0 -160 -72 -160 -160v-832c0 -88 72 -160 160 -160h832c88 0 160 72 160 160v320c0 18 14 32 32 32
h64c18 0 32 -14 32 -32zM1792 1472v-512c0 -35 -29 -64 -64 -64c-17 0 -33 7 -45 19l-176 176l-652 -652c-6 -6 -15 -10 -23 -10s-17 4 -23 10l-114 114c-6 6 -10 15 -10 23s4 17 10 23l652 652l-176 176c-12 12 -19 28 -19 45c0 35 29 64 64 64h512c35 0 64 -29 64 -64z
" />
    <glyph glyph-name="signin" unicode="&#xf090;" 
d="M1184 640c0 -17 -7 -33 -19 -45l-544 -544c-12 -12 -28 -19 -45 -19c-35 0 -64 29 -64 64v288h-448c-35 0 -64 29 -64 64v384c0 35 29 64 64 64h448v288c0 35 29 64 64 64c17 0 33 -7 45 -19l544 -544c12 -12 19 -28 19 -45zM1536 992v-704c0 -159 -129 -288 -288 -288
h-320c-17 0 -32 15 -32 32c0 28 -13 96 32 96h320c88 0 160 72 160 160v704c0 88 -72 160 -160 160h-288c-25 0 -64 -5 -64 32c0 28 -13 96 32 96h320c159 0 288 -129 288 -288z" />
    <glyph glyph-name="trophy" unicode="&#xf091;" horiz-adv-x="1664" 
d="M458 653c-42 92 -74 214 -74 371h-256v-96c0 -98 133 -234 330 -275zM1536 928v96h-256c0 -157 -32 -279 -74 -371c197 41 330 177 330 275zM1664 1056v-128c0 -190 -230 -400 -542 -415c-40 -51 -77 -81 -95 -95c-53 -48 -67 -98 -67 -162s32 -128 128 -128
s192 -64 192 -160v-64c0 -18 -14 -32 -32 -32h-832c-18 0 -32 14 -32 32v64c0 96 96 160 192 160s128 64 128 128s-14 114 -67 162c-18 14 -55 44 -95 95c-312 15 -542 225 -542 415v128c0 53 43 96 96 96h288v96c0 88 72 160 160 160h576c88 0 160 -72 160 -160v-96h288
c53 0 96 -43 96 -96z" />
    <glyph glyph-name="github_sign" unicode="&#xf092;" 
d="M394 184c-4 -5 -13 -4 -20 3c-7 6 -9 15 -4 19c4 5 13 4 20 -3c6 -6 8 -15 4 -19zM352 245c5 -7 5 -15 0 -19v0c-4 -3 -12 0 -17 7s-5 15 0 18c5 4 13 1 17 -6zM291 305c-2 -3 -8 -5 -13 -2c-6 3 -9 8 -7 12c2 3 7 4 13 2c6 -3 9 -8 7 -12zM322 271c-4 -4 -11 -2 -16 3
c-5 6 -6 13 -2 16c4 4 11 2 16 -3c5 -6 6 -13 2 -16zM451 159c-2 -6 -11 -9 -19 -6c-9 2 -15 9 -13 15s11 9 19 7c9 -3 15 -10 13 -16zM514 154c0 -6 -7 -11 -16 -11c-10 -1 -17 4 -17 11c0 6 7 11 16 11c9 1 17 -4 17 -11zM572 164c1 -6 -5 -12 -14 -14s-17 2 -18 8
c-1 7 5 13 14 15c9 1 17 -3 18 -9zM1536 1120v-960c0 -159 -129 -288 -288 -288h-224c-32 0 -65 0 -65 48v239c0 72 -24 118 -52 142c171 19 351 84 351 379c0 84 -30 153 -79 206c8 20 34 98 -8 204c-64 20 -211 -79 -211 -79c-61 17 -127 26 -192 26s-131 -9 -192 -26
c0 0 -147 99 -212 79c-41 -106 -15 -184 -7 -204c-49 -53 -79 -122 -79 -206c0 -294 179 -360 350 -379c-22 -20 -42 -53 -49 -103c-44 -20 -156 -54 -223 64c-42 73 -118 79 -118 79c-75 1 -5 -47 -5 -47c50 -23 85 -112 85 -112c45 -137 259 -91 259 -91
c0 -64 1 -153 1 -171c0 -48 -34 -48 -66 -48h-224c-159 0 -288 129 -288 288v960c0 159 129 288 288 288h960c159 0 288 -129 288 -288z" />
    <glyph glyph-name="upload_alt" unicode="&#xf093;" horiz-adv-x="1664" 
d="M1280 64c0 35 -29 64 -64 64s-64 -29 -64 -64s29 -64 64 -64s64 29 64 64zM1536 64c0 35 -29 64 -64 64s-64 -29 -64 -64s29 -64 64 -64s64 29 64 64zM1664 288v-320c0 -53 -43 -96 -96 -96h-1472c-53 0 -96 43 -96 96v320c0 53 43 96 96 96h427c27 -74 98 -128 181 -128
h256c83 0 154 54 181 128h427c53 0 96 -43 96 -96zM1339 936c-10 -24 -33 -40 -59 -40h-256v-448c0 -35 -29 -64 -64 -64h-256c-35 0 -64 29 -64 64v448h-256c-26 0 -49 16 -59 40c-10 23 -5 51 14 69l448 448c12 13 29 19 45 19s33 -6 45 -19l448 -448
c19 -18 24 -46 14 -69z" />
    <glyph glyph-name="lemon" unicode="&#xf094;" 
d="M1407 710c0 47 -9 170 -25 210c-19 48 -30 75 -30 129c0 46 10 91 10 136c0 19 -1 39 -10 55c-4 1 -9 1 -13 1c-39 0 -78 -9 -117 -9c-119 0 -232 48 -351 48c-93 0 -183 -35 -269 -69c-68 -27 -143 -59 -202 -103c-202 -153 -272 -433 -272 -674c0 -81 25 -160 25 -241
c0 -46 -22 -88 -22 -132c0 -28 16 -51 46 -51c49 0 96 22 146 22c114 0 225 -31 339 -31c89 0 201 7 284 36c263 93 461 397 461 673zM1535 712c0 -333 -231 -684 -547 -796c-99 -35 -222 -44 -326 -44c-114 0 -226 29 -339 29c-48 0 -96 -29 -146 -29
c-99 0 -174 89 -174 184c0 47 22 89 22 135c0 81 -25 160 -25 242c0 284 87 598 323 777c68 52 153 89 232 120c102 41 205 78 316 78c119 0 232 -48 349 -48c38 0 76 10 115 10c114 0 155 -81 155 -185c0 -45 -10 -91 -10 -136c0 -36 9 -50 21 -82c23 -58 34 -191 34 -255z
" />
    <glyph glyph-name="phone" unicode="&#xf095;" horiz-adv-x="1408" 
d="M1408 296c0 -36 -16 -106 -31 -139c-21 -49 -77 -81 -122 -106c-59 -32 -119 -51 -186 -51c-93 0 -177 38 -262 69c-61 22 -120 49 -175 83c-170 105 -375 310 -480 480c-34 55 -61 114 -83 175c-31 85 -69 169 -69 262c0 67 19 127 51 186c25 45 57 101 106 122
c33 15 103 31 139 31c7 0 14 0 21 -3c21 -7 43 -56 53 -76c32 -57 63 -115 96 -171c16 -26 46 -58 46 -89c0 -61 -181 -150 -181 -204c0 -27 25 -62 39 -86c101 -182 227 -308 409 -409c24 -14 59 -39 86 -39c54 0 143 181 204 181c31 0 63 -30 89 -46
c56 -33 114 -64 171 -96c20 -10 69 -32 76 -53c3 -7 3 -14 3 -21z" />
    <glyph glyph-name="check_empty" unicode="&#xf096;" horiz-adv-x="1408" 
d="M1120 1280h-832c-88 0 -160 -72 -160 -160v-832c0 -88 72 -160 160 -160h832c88 0 160 72 160 160v832c0 88 -72 160 -160 160zM1408 1120v-832c0 -159 -129 -288 -288 -288h-832c-159 0 -288 129 -288 288v832c0 159 129 288 288 288h832v0c159 0 288 -129 288 -288z
" />
    <glyph glyph-name="bookmark_empty" unicode="&#xf097;" horiz-adv-x="1280" 
d="M1152 1280h-1024v-1242l423 406l89 85l89 -85l423 -406v1242zM1164 1408c15 0 30 -3 44 -9c44 -17 72 -58 72 -103v-1289c0 -45 -28 -86 -72 -103c-14 -6 -29 -8 -44 -8c-31 0 -60 11 -83 32l-441 424l-441 -424c-23 -21 -52 -33 -83 -33c-15 0 -30 3 -44 9
c-44 17 -72 58 -72 103v1289c0 45 28 86 72 103c14 6 29 9 44 9h1048z" />
    <glyph glyph-name="phone_sign" unicode="&#xf098;" 
d="M1280 343c0 5 0 11 -2 16c-6 18 -152 92 -180 108c-19 11 -42 33 -65 33c-44 0 -109 -131 -148 -131c-20 0 -45 18 -63 28c-132 74 -223 165 -297 297c-10 18 -28 43 -28 63c0 39 131 104 131 148c0 23 -22 46 -33 65c-16 28 -90 174 -108 180c-5 2 -11 2 -16 2
c-26 0 -77 -12 -101 -22c-66 -30 -114 -156 -114 -225c0 -67 27 -128 50 -190c80 -219 318 -457 537 -537c62 -23 123 -50 190 -50c69 0 195 48 225 114c10 24 22 75 22 101zM1536 1120v-960c0 -159 -129 -288 -288 -288h-960c-159 0 -288 129 -288 288v960
c0 159 129 288 288 288h960c159 0 288 -129 288 -288z" />
    <glyph glyph-name="twitter" unicode="&#xf099;" horiz-adv-x="1664" 
d="M1620 1128c-44 -64 -99 -121 -162 -167c1 -14 1 -28 1 -42c0 -427 -325 -919 -919 -919c-183 0 -353 53 -496 145c26 -3 51 -4 78 -4c151 0 290 51 401 138c-142 3 -261 96 -302 224c20 -3 40 -5 61 -5c29 0 58 4 85 11c-148 30 -259 160 -259 317v4
c43 -24 93 -39 146 -41c-87 58 -144 157 -144 269c0 60 16 115 44 163c159 -196 398 -324 666 -338c-5 24 -8 49 -8 74c0 178 144 323 323 323c93 0 177 -39 236 -102c73 14 143 41 205 78c-24 -75 -75 -138 -142 -178c65 7 128 25 186 50z" />
    <glyph glyph-name="facebook" unicode="&#xf09a;" horiz-adv-x="1024" 
d="M959 1524v-264h-157c-123 0 -146 -59 -146 -144v-189h293l-39 -296h-254v-759h-306v759h-255v296h255v218c0 253 155 391 381 391c108 0 201 -8 228 -12z" />
    <glyph glyph-name="github" unicode="&#xf09b;" 
d="M1536 640c0 -339 -220 -627 -525 -729c-39 -7 -52 17 -52 37v211c0 72 -24 118 -52 142c171 19 351 84 351 379c0 84 -30 153 -79 206c8 20 34 98 -8 204c-64 20 -211 -79 -211 -79c-61 17 -127 26 -192 26s-131 -9 -192 -26c0 0 -147 99 -212 79
c-41 -106 -15 -184 -7 -204c-49 -53 -79 -122 -79 -206c0 -294 179 -360 350 -379c-22 -20 -42 -53 -49 -103c-44 -20 -156 -54 -223 64c-42 73 -118 79 -118 79c-75 1 -5 -47 -5 -47c50 -23 85 -112 85 -112c45 -137 259 -91 259 -91c0 -64 1 -125 1 -143
c0 -20 -14 -44 -53 -37c-305 102 -525 390 -525 729c0 424 344 768 768 768s768 -344 768 -768z" />
    <glyph glyph-name="unlock" unicode="&#xf09c;" horiz-adv-x="1664" 
d="M1664 960v-256c0 -35 -29 -64 -64 -64h-64c-35 0 -64 29 -64 64v256c0 141 -115 256 -256 256s-256 -115 -256 -256v-192h96c53 0 96 -43 96 -96v-576c0 -53 -43 -96 -96 -96h-960c-53 0 -96 43 -96 96v576c0 53 43 96 96 96h672v192c0 247 201 448 448 448
s448 -201 448 -448z" />
    <glyph glyph-name="credit_card" unicode="&#xf09d;" horiz-adv-x="1920" 
d="M1760 1408c88 0 160 -72 160 -160v-1216c0 -88 -72 -160 -160 -160h-1600c-88 0 -160 72 -160 160v1216c0 88 72 160 160 160h1600zM160 1280c-17 0 -32 -15 -32 -32v-224h1664v224c0 17 -15 32 -32 32h-1600zM1760 0c17 0 32 15 32 32v608h-1664v-608
c0 -17 15 -32 32 -32h1600zM256 128v128h256v-128h-256zM640 128v128h384v-128h-384z" />
    <glyph glyph-name="rss" unicode="&#xf09e;" horiz-adv-x="1408" 
d="M384 192c0 -106 -86 -192 -192 -192s-192 86 -192 192s86 192 192 192s192 -86 192 -192zM896 69c1 -18 -5 -35 -17 -48c-12 -14 -29 -21 -47 -21h-135c-33 0 -60 25 -63 58c-29 305 -271 547 -576 576c-33 3 -58 30 -58 63v135c0 18 7 35 21 47c11 11 27 17 43 17h5
c213 -17 414 -110 565 -262c152 -151 245 -352 262 -565zM1408 67c1 -17 -5 -34 -18 -47c-12 -13 -28 -20 -46 -20h-143c-34 0 -62 26 -64 60c-33 581 -496 1044 -1077 1078c-34 2 -60 30 -60 63v143c0 18 7 34 20 46c12 12 28 18 44 18h3c350 -18 679 -165 927 -414
c249 -248 396 -577 414 -927z" />
    <glyph glyph-name="hdd" unicode="&#xf0a0;" 
d="M1040 320c0 -44 -36 -80 -80 -80s-80 36 -80 80s36 80 80 80s80 -36 80 -80zM1296 320c0 -44 -36 -80 -80 -80s-80 36 -80 80s36 80 80 80s80 -36 80 -80zM1408 160v320c0 17 -15 32 -32 32h-1216c-17 0 -32 -15 -32 -32v-320c0 -17 15 -32 32 -32h1216c17 0 32 15 32 32
zM178 640h1180l-157 482c-5 17 -24 30 -42 30h-782c-18 0 -37 -13 -42 -30zM1536 480v-320c0 -88 -72 -160 -160 -160h-1216c-88 0 -160 72 -160 160v320c0 27 8 50 16 75l197 606c23 70 90 119 164 119h782c74 0 141 -49 164 -119l197 -606c8 -25 16 -48 16 -75z" />
    <glyph glyph-name="bullhorn" unicode="&#xf0a1;" horiz-adv-x="1792" 
d="M1664 896c71 0 128 -57 128 -128s-57 -128 -128 -128v-384c0 -70 -58 -128 -128 -128c-178 148 -465 351 -812 380c-119 -40 -160 -179 -82 -259c-70 -115 20 -196 126 -279c-62 -122 -320 -124 -412 -39c-58 178 -144 356 -74 581h-122c-88 0 -160 72 -160 160v192
c0 88 72 160 160 160h480c384 0 704 224 896 384c70 0 128 -58 128 -128v-384zM1536 292v954c-261 -200 -514 -315 -768 -343v-270c254 -28 507 -141 768 -341z" />
    <glyph glyph-name="bell" unicode="&#xf0a2;" horiz-adv-x="1792" 
d="M912 -160c0 9 -7 16 -16 16c-79 0 -144 65 -144 144c0 9 -7 16 -16 16s-16 -7 -16 -16c0 -97 79 -176 176 -176c9 0 16 7 16 16zM246 128h1300c-179 202 -266 476 -266 832c0 129 -122 320 -384 320s-384 -191 -384 -320c0 -356 -87 -630 -266 -832zM1728 128
c0 -70 -58 -128 -128 -128h-448c0 -141 -115 -256 -256 -256s-256 115 -256 256h-448c-70 0 -128 58 -128 128c148 125 320 349 320 832c0 192 159 402 424 441c-5 12 -8 25 -8 39c0 53 43 96 96 96s96 -43 96 -96c0 -14 -3 -27 -8 -39c265 -39 424 -249 424 -441
c0 -483 172 -707 320 -832z" />
    <glyph glyph-name="certificate" unicode="&#xf0a3;" 
d="M1376 640l138 -135c19 -18 26 -45 20 -70c-7 -25 -27 -45 -52 -51l-188 -48l53 -186c7 -25 0 -52 -19 -70c-18 -19 -45 -26 -70 -19l-186 53l-48 -188c-6 -25 -26 -45 -51 -52c-6 -1 -13 -2 -19 -2c-19 0 -38 8 -51 22l-135 138l-135 -138c-18 -19 -45 -26 -70 -20
c-26 7 -45 27 -51 52l-48 188l-186 -53c-25 -7 -52 0 -70 19c-19 18 -26 45 -19 70l53 186l-188 48c-25 6 -45 26 -52 51c-6 25 1 52 20 70l138 135l-138 135c-19 18 -26 45 -20 70c7 25 27 45 52 51l188 48l-53 186c-7 25 0 52 19 70c18 19 45 26 70 19l186 -53l48 188
c6 25 26 45 51 51c25 7 52 0 70 -19l135 -139l135 139c18 19 44 26 70 19c25 -6 45 -26 51 -51l48 -188l186 53c25 7 52 0 70 -19c19 -18 26 -45 19 -70l-53 -186l188 -48c25 -6 45 -26 52 -51c6 -25 -1 -52 -20 -70z" />
    <glyph glyph-name="hand_right" unicode="&#xf0a4;" horiz-adv-x="1792" 
d="M256 192c0 35 -29 64 -64 64s-64 -29 -64 -64s29 -64 64 -64s64 29 64 64zM1664 768c0 68 -61 128 -128 128h-576c0 63 96 128 96 256c0 96 -75 128 -160 128c-28 0 -79 -116 -90 -139c-12 -22 -24 -44 -37 -65c-33 -53 -71 -99 -112 -145c-64 -73 -135 -163 -241 -163
h-32v-640h32c175 0 346 -128 540 -128c112 0 189 47 189 167c0 19 -2 38 -5 56c42 23 65 80 65 126c0 24 -6 48 -18 69c34 32 53 72 53 119c0 32 -14 79 -35 103h331c69 0 128 59 128 128zM1792 769c0 -140 -116 -257 -256 -257h-169c-3 -42 -16 -82 -37 -119
c2 -14 3 -29 3 -43c0 -64 -21 -128 -60 -178c2 -189 -127 -300 -312 -300c-112 0 -218 31 -322 69c-61 22 -160 59 -223 59h-288c-71 0 -128 57 -128 128v640c0 71 57 128 128 128h288c48 0 116 86 145 119c36 41 70 82 100 129c58 93 101 264 235 264
c159 0 288 -87 288 -256c0 -44 -7 -87 -22 -128h374c138 0 256 -117 256 -255z" />
    <glyph glyph-name="hand_left" unicode="&#xf0a5;" horiz-adv-x="1792" 
d="M1376 128h32v640h-32c-106 0 -177 90 -241 163c-41 46 -79 92 -112 145c-14 22 -26 45 -38 68s-62 136 -89 136c-85 0 -160 -32 -160 -128c0 -128 96 -193 96 -256h-576c-67 0 -128 -60 -128 -128c0 -69 59 -128 128 -128h331c-21 -24 -35 -71 -35 -103
c0 -47 19 -87 53 -119c-12 -21 -18 -45 -18 -69c0 -46 23 -103 65 -126c-3 -18 -4 -37 -4 -56c0 -118 73 -167 184 -167c199 0 369 128 544 128zM1664 192c0 35 -29 64 -64 64s-64 -29 -64 -64s29 -64 64 -64s64 29 64 64zM1792 768v-640c0 -71 -57 -128 -128 -128h-288
c-63 0 -162 -37 -223 -59c-102 -37 -207 -69 -317 -69c-184 0 -318 104 -317 295l1 5c-40 50 -61 114 -61 178c0 14 1 29 3 43c-21 37 -34 77 -37 119h-169c-140 0 -256 117 -256 257c0 138 118 255 256 255h374c-15 41 -22 84 -22 128c0 169 129 256 288 256
c134 0 177 -171 235 -264c30 -47 64 -88 100 -129c29 -33 97 -119 145 -119h288c71 0 128 -57 128 -128z" />
    <glyph glyph-name="hand_up" unicode="&#xf0a6;" 
d="M1280 -64c0 35 -29 64 -64 64s-64 -29 -64 -64s29 -64 64 -64s64 29 64 64zM1408 700c0 113 -46 189 -167 189c-19 0 -38 -2 -56 -5c-23 42 -80 65 -126 65c-24 0 -48 -6 -69 -18c-32 34 -72 53 -119 53c-32 0 -79 -14 -103 -35v331c0 69 -59 128 -128 128
c-68 0 -128 -61 -128 -128v-576c-63 0 -128 96 -256 96c-96 0 -128 -75 -128 -160c0 -28 116 -79 139 -90c22 -12 44 -24 65 -37c53 -33 99 -71 145 -112c73 -64 163 -135 163 -241v-32h640v32c0 175 128 346 128 540zM1536 705c0 -112 -31 -218 -69 -322
c-22 -61 -59 -160 -59 -223v-288c0 -71 -57 -128 -128 -128h-640c-71 0 -128 57 -128 128v288c0 48 -86 116 -119 145c-41 36 -82 70 -129 100c-93 58 -264 101 -264 235c0 159 87 288 256 288c44 0 87 -7 128 -22v374c0 138 117 256 255 256c140 0 257 -116 257 -256v-169
c42 -3 82 -16 119 -37c14 2 29 3 43 3c64 0 128 -21 178 -60c189 2 300 -127 300 -312z" />
    <glyph glyph-name="hand_down" unicode="&#xf0a7;" 
d="M1408 576c0 199 -128 369 -128 544v32h-640v-32c0 -106 -90 -177 -163 -241c-46 -41 -92 -79 -145 -112c-22 -14 -45 -26 -68 -38s-136 -62 -136 -89c0 -85 32 -160 128 -160c128 0 193 96 256 96v-576c0 -67 60 -128 128 -128c69 0 128 59 128 128v331
c26 -20 70 -35 103 -35c47 0 87 19 119 53c21 -12 45 -18 69 -18c46 0 103 23 126 65c18 -3 37 -4 56 -4c118 0 167 73 167 184zM1280 1344c0 35 -29 64 -64 64s-64 -29 -64 -64s29 -64 64 -64s64 29 64 64zM1536 580c0 -184 -104 -318 -295 -317l-5 1
c-50 -40 -114 -61 -178 -61c-14 0 -29 1 -43 3c-34 -19 -80 -33 -119 -37v-169c0 -140 -117 -256 -257 -256c-138 0 -255 118 -255 256v374c-39 -16 -86 -22 -128 -22c-168 0 -256 129 -256 288c0 134 171 177 264 235c47 30 88 64 129 100c33 29 119 97 119 145v288
c0 71 57 128 128 128h640c71 0 128 -57 128 -128v-288c0 -63 37 -162 59 -223c37 -102 69 -207 69 -317z" />
    <glyph glyph-name="circle_arrow_left" unicode="&#xf0a8;" 
d="M1280 576v128c0 35 -29 64 -64 64h-502l189 189c12 12 19 28 19 45s-7 33 -19 45l-91 91c-12 12 -28 18 -45 18s-33 -6 -45 -18l-362 -362l-91 -91c-12 -12 -18 -28 -18 -45s6 -33 18 -45l91 -91l362 -362c12 -12 28 -18 45 -18s33 6 45 18l91 91c12 12 18 28 18 45
s-6 33 -18 45l-189 189h502c35 0 64 29 64 64zM1536 640c0 -424 -344 -768 -768 -768s-768 344 -768 768s344 768 768 768s768 -344 768 -768z" />
    <glyph glyph-name="circle_arrow_right" unicode="&#xf0a9;" 
d="M1285 640c0 17 -6 33 -18 45l-91 91l-362 362c-12 12 -28 18 -45 18s-33 -6 -45 -18l-91 -91c-12 -12 -18 -28 -18 -45s6 -33 18 -45l189 -189h-502c-35 0 -64 -29 -64 -64v-128c0 -35 29 -64 64 -64h502l-189 -189c-12 -12 -19 -28 -19 -45s7 -33 19 -45l91 -91
c12 -12 28 -18 45 -18s33 6 45 18l362 362l91 91c12 12 18 28 18 45zM1536 640c0 -424 -344 -768 -768 -768s-768 344 -768 768s344 768 768 768s768 -344 768 -768z" />
    <glyph glyph-name="circle_arrow_up" unicode="&#xf0aa;" 
d="M1284 641c0 17 -6 33 -18 45l-362 362l-91 91c-12 12 -28 18 -45 18s-33 -6 -45 -18l-91 -91l-362 -362c-12 -12 -18 -28 -18 -45s6 -33 18 -45l91 -91c12 -12 28 -18 45 -18s33 6 45 18l189 189v-502c0 -35 29 -64 64 -64h128c35 0 64 29 64 64v502l189 -189
c12 -12 28 -19 45 -19s33 7 45 19l91 91c12 12 18 28 18 45zM1536 640c0 -424 -344 -768 -768 -768s-768 344 -768 768s344 768 768 768s768 -344 768 -768z" />
    <glyph glyph-name="circle_arrow_down" unicode="&#xf0ab;" 
d="M1284 639c0 17 -6 33 -18 45l-91 91c-12 12 -28 18 -45 18s-33 -6 -45 -18l-189 -189v502c0 35 -29 64 -64 64h-128c-35 0 -64 -29 -64 -64v-502l-189 189c-12 12 -28 19 -45 19s-33 -7 -45 -19l-91 -91c-12 -12 -18 -28 -18 -45s6 -33 18 -45l362 -362l91 -91
c12 -12 28 -18 45 -18s33 6 45 18l91 91l362 362c12 12 18 28 18 45zM1536 640c0 -424 -344 -768 -768 -768s-768 344 -768 768s344 768 768 768s768 -344 768 -768z" />
    <glyph glyph-name="globe" unicode="&#xf0ac;" 
d="M768 1408c424 0 768 -344 768 -768s-344 -768 -768 -768s-768 344 -768 768s344 768 768 768zM1042 887c-8 -6 -13 -17 -23 -19c5 1 10 19 13 23c6 7 14 11 22 15c17 7 34 9 52 12c17 4 38 4 51 -11c-3 3 21 24 24 25c9 5 24 3 30 12c2 3 2 22 2 22c-17 -2 -23 14 -24 28
c0 -1 -2 -4 -6 -8c1 15 -18 4 -25 6c-23 6 -20 22 -27 39c-4 9 -15 12 -19 21c-4 6 -6 19 -15 20c-6 1 -17 -21 -19 -20c-9 5 -13 -2 -20 -6c-6 -4 -11 -2 -17 -5c18 6 -8 16 -17 14c14 4 7 19 -1 26h5c-2 9 -30 17 -39 23s-57 16 -67 10c-12 -7 3 -27 3 -37
c1 -12 -12 -15 -12 -25c0 -17 32 -14 24 -37c-5 -14 -24 -17 -32 -28c-8 -10 1 -28 9 -35c8 -6 -14 -16 -17 -18c-17 -8 -30 17 -34 32c-3 11 -4 24 -16 30c-6 2 -25 5 -29 -1c-6 15 -27 21 -41 26c-20 7 -37 7 -58 4c7 1 -2 32 -19 27c5 10 3 21 5 31c2 8 6 16 12 23
c2 4 24 27 17 28c17 -2 36 -3 50 11c9 9 13 24 22 34c13 15 29 -4 43 -5c20 -1 19 21 8 31c13 -1 2 23 -5 26c-9 3 -43 -6 -25 -13c-4 2 -28 -48 -42 -23c-4 5 -6 26 -15 27c-8 0 -13 -9 -16 -15c5 13 -28 22 -35 23c15 10 3 21 -8 27c-8 5 -33 9 -40 1
c-19 -23 20 -26 30 -32c3 -2 15 -9 8 -14c-6 -3 -24 -8 -26 -12c-6 -9 7 -19 -2 -28c-9 9 -9 24 -16 34c9 -11 -36 -5 -35 -5c-15 0 -39 -10 -50 5c-2 4 -2 27 4 22c-9 7 -15 14 -21 18c-33 -11 -64 -25 -94 -41c4 -1 7 -1 12 1c8 3 15 8 23 12c10 4 31 16 42 7c1 2 4 4 5 5
c7 -8 14 -16 20 -25c-8 4 -21 2 -30 1c-7 -2 -19 -4 -22 -12c3 -5 7 -13 5 -18c-13 9 -23 24 -41 26c-8 0 -16 0 -22 -1c-96 -53 -177 -130 -235 -222c4 -4 8 -7 12 -8c10 -3 0 -32 19 -17c6 -5 7 -12 3 -19c1 1 41 -25 44 -27c7 -6 18 -13 21 -21c2 -7 -4 -15 -10 -18
c-1 2 -16 17 -18 13c-3 -5 0 -32 11 -31c-16 -1 -9 -63 -13 -75c0 -1 2 -1 2 -1c-3 -12 7 -59 27 -54c-13 -3 23 -49 28 -52c13 -9 28 -15 37 -28c10 -14 10 -35 24 -46c-4 -12 21 -26 20 -43c-2 -1 -3 -1 -5 -2c5 -14 24 -14 31 -27c4 -8 0 -27 13 -23c2 22 -13 44 -24 62
c-6 10 -12 19 -17 29c-5 9 -6 20 -10 30c4 -1 26 -9 24 -12c-8 -20 32 -55 43 -68c3 -3 26 -33 14 -33c13 0 31 -20 37 -30c9 -15 7 -34 13 -50c6 -20 34 -29 50 -38c14 -7 26 -17 40 -22c21 -8 26 -1 44 2c26 4 29 -25 50 -36c13 -7 41 -17 55 -11c-6 -2 21 -43 23 -46
c9 -12 26 -18 36 -30c3 2 6 5 7 9c-4 -11 15 -32 25 -30c11 2 14 24 14 32c-20 -10 -38 -2 -49 18c-2 5 -18 33 -4 33c19 0 6 15 4 29s-16 23 -23 35c-6 -12 -26 -9 -32 1c0 -3 -3 -8 -3 -12c-5 0 -10 -1 -15 1c2 12 3 27 6 40c5 18 38 53 -5 51c-15 -1 -21 -7 -26 -20
c-5 -12 -3 -23 -17 -29c-9 -4 -39 -2 -48 3c-19 11 -32 46 -32 66c-1 27 13 51 0 76c6 5 12 15 19 20c6 4 13 -3 16 9c-3 2 -7 6 -8 6c15 -7 43 10 56 0c8 -6 17 -8 22 2c1 3 -7 15 -3 23c3 -17 14 -20 29 -9c6 -6 22 -4 33 -10c11 -7 13 -18 26 -3c8 -12 9 -12 12 -24
c3 -11 9 -39 19 -44c21 -13 16 22 14 34c-1 1 -1 34 -2 34c-32 7 -20 32 -2 49c3 2 26 10 36 18c9 8 20 22 15 35c5 0 9 4 11 9c-3 1 -15 11 -17 10c7 4 6 10 2 16c10 6 5 17 15 21c11 -15 33 2 22 14c10 14 33 7 39 20c15 -4 4 15 12 26c7 9 19 9 28 14c0 -1 25 14 17 15
c17 -2 51 16 25 31c4 9 -9 13 -18 15c7 2 16 -2 22 2c13 9 4 13 -7 16c-14 4 -32 -5 -43 -12zM879 10c137 24 259 92 351 189c-6 6 -17 4 -25 8c-8 3 -14 6 -24 8c2 20 -20 27 -34 37c-13 10 -21 21 -40 17c-2 -1 -22 -8 -18 -12c-13 11 -19 17 -36 22c-16 5 -27 25 -43 7
c-8 -8 -4 -20 -8 -28c-13 11 12 24 2 36c-12 14 -33 -9 -43 -15c-6 -5 -13 -7 -17 -13c-5 -7 -7 -16 -11 -23c-3 8 -20 6 -21 12c4 -24 4 -49 9 -73c3 -14 0 -37 -12 -48s-27 -23 -29 -40c-2 -12 1 -23 12 -26c1 -15 -16 -26 -15 -42c0 -1 1 -11 2 -16z" />
    <glyph glyph-name="wrench" unicode="&#xf0ad;" horiz-adv-x="1664" 
d="M384 64c0 35 -29 64 -64 64s-64 -29 -64 -64s29 -64 64 -64s64 29 64 64zM1028 484l-682 -682c-23 -23 -56 -37 -90 -37s-67 14 -91 37l-106 108c-24 23 -38 56 -38 90s14 67 38 91l681 681c52 -131 157 -236 288 -288zM1662 919c0 -33 -12 -74 -23 -106
c-63 -178 -234 -301 -423 -301c-247 0 -448 201 -448 448s201 448 448 448c73 0 168 -22 229 -63c10 -7 16 -16 16 -28c0 -11 -7 -22 -16 -28l-293 -169v-224l193 -107c33 19 265 165 285 165s32 -15 32 -35z" />
    <glyph glyph-name="tasks" unicode="&#xf0ae;" horiz-adv-x="1792" 
d="M1024 128h640v128h-640v-128zM640 640h1024v128h-1024v-128zM1280 1152h384v128h-384v-128zM1792 320v-256c0 -35 -29 -64 -64 -64h-1664c-35 0 -64 29 -64 64v256c0 35 29 64 64 64h1664c35 0 64 -29 64 -64zM1792 832v-256c0 -35 -29 -64 -64 -64h-1664
c-35 0 -64 29 -64 64v256c0 35 29 64 64 64h1664c35 0 64 -29 64 -64zM1792 1344v-256c0 -35 -29 -64 -64 -64h-1664c-35 0 -64 29 -64 64v256c0 35 29 64 64 64h1664c35 0 64 -29 64 -64z" />
    <glyph glyph-name="filter" unicode="&#xf0b0;" horiz-adv-x="1408" 
d="M1403 1241c10 -24 5 -52 -14 -70l-493 -493v-742c0 -26 -16 -49 -39 -59c-8 -3 -17 -5 -25 -5c-17 0 -33 6 -45 19l-256 256c-12 12 -19 28 -19 45v486l-493 493c-19 18 -24 46 -14 70c10 23 33 39 59 39h1280c26 0 49 -16 59 -39z" />
    <glyph glyph-name="briefcase" unicode="&#xf0b1;" horiz-adv-x="1792" 
d="M640 1280h512v128h-512v-128zM1792 640v-480c0 -88 -72 -160 -160 -160h-1472c-88 0 -160 72 -160 160v480h672v-160c0 -35 29 -64 64 -64h320c35 0 64 29 64 64v160h672zM1024 640v-128h-256v128h256zM1792 1120v-384h-1792v384c0 88 72 160 160 160h352v160
c0 53 43 96 96 96h576c53 0 96 -43 96 -96v-160h352c88 0 160 -72 160 -160z" />
    <glyph glyph-name="fullscreen" unicode="&#xf0b2;" 
d="M1283 995l-355 -355l355 -355l144 144c18 19 46 24 70 14c23 -10 39 -33 39 -59v-448c0 -35 -29 -64 -64 -64h-448c-26 0 -49 16 -59 40c-10 23 -5 51 14 69l144 144l-355 355l-355 -355l144 -144c19 -18 24 -46 14 -69c-10 -24 -33 -40 -59 -40h-448
c-35 0 -64 29 -64 64v448c0 26 16 49 40 59c23 10 51 5 69 -14l144 -144l355 355l-355 355l-144 -144c-12 -12 -28 -19 -45 -19c-8 0 -17 2 -24 5c-24 10 -40 33 -40 59v448c0 35 29 64 64 64h448c26 0 49 -16 59 -40c10 -23 5 -51 -14 -69l-144 -144l355 -355l355 355
l-144 144c-19 18 -24 46 -14 69c10 24 33 40 59 40h448c35 0 64 -29 64 -64v-448c0 -26 -16 -49 -39 -59c-8 -3 -17 -5 -25 -5c-17 0 -33 7 -45 19z" />
    <glyph glyph-name="notequal" unicode="&#x2260;" horiz-adv-x="1792" 
 />
    <glyph glyph-name="infinity" unicode="&#x221e;" horiz-adv-x="1792" 
 />
    <glyph glyph-name="lessequal" unicode="&#xf500;" horiz-adv-x="1792" 
 />
    <glyph glyph-name="group" unicode="&#xf0c0;" horiz-adv-x="1920" 
d="M593 640c-104 -3 -198 -48 -265 -128h-134c-100 0 -194 48 -194 159c0 81 -3 353 124 353c21 0 125 -85 260 -85c46 0 90 8 133 23c-3 -22 -5 -44 -5 -66c0 -91 29 -181 81 -256zM1664 3c0 -162 -107 -259 -267 -259h-874c-160 0 -267 97 -267 259c0 226 53 573 346 573
c34 0 158 -139 358 -139s324 139 358 139c293 0 346 -347 346 -573zM640 1280c0 -141 -115 -256 -256 -256s-256 115 -256 256s115 256 256 256s256 -115 256 -256zM1344 896c0 -212 -172 -384 -384 -384s-384 172 -384 384s172 384 384 384s384 -172 384 -384zM1920 671
c0 -111 -94 -159 -194 -159h-134c-67 80 -161 125 -265 128c52 75 81 165 81 256c0 22 -2 44 -5 66c43 -15 87 -23 133 -23c135 0 239 85 260 85c127 0 124 -272 124 -353zM1792 1280c0 -141 -115 -256 -256 -256s-256 115 -256 256s115 256 256 256s256 -115 256 -256z" />
    <glyph glyph-name="link" unicode="&#xf0c1;" horiz-adv-x="1664" 
d="M1456 320c0 26 -10 50 -28 68l-208 208c-18 18 -43 28 -68 28c-29 0 -52 -11 -72 -32c33 -33 72 -61 72 -112c0 -53 -43 -96 -96 -96c-51 0 -79 39 -112 72c-21 -20 -33 -43 -33 -73c0 -25 10 -50 28 -68l206 -207c18 -18 43 -27 68 -27s50 9 68 26l147 146
c18 18 28 42 28 67zM753 1025c0 25 -10 50 -28 68l-206 207c-18 18 -43 28 -68 28s-50 -10 -68 -27l-147 -146c-18 -18 -28 -42 -28 -67c0 -26 10 -50 28 -68l208 -208c18 -18 43 -27 68 -27c29 0 52 10 72 31c-33 33 -72 61 -72 112c0 53 43 96 96 96c51 0 79 -39 112 -72
c21 20 33 43 33 73zM1648 320c0 -76 -31 -150 -85 -203l-147 -146c-54 -54 -127 -83 -203 -83c-77 0 -150 30 -204 85l-206 207c-54 54 -83 127 -83 203c0 79 32 154 88 209l-88 88c-55 -56 -129 -88 -208 -88c-76 0 -150 30 -204 84l-208 208c-55 55 -84 127 -84 204
c0 76 31 150 85 203l147 146c54 54 127 83 203 83c77 0 150 -30 204 -85l206 -207c54 -54 83 -127 83 -203c0 -79 -32 -154 -88 -209l88 -88c55 56 129 88 208 88c76 0 150 -30 204 -84l208 -208c55 -55 84 -127 84 -204z" />
    <glyph glyph-name="cloud" unicode="&#xf0c2;" horiz-adv-x="1920" 
d="M1920 384c0 -212 -172 -384 -384 -384h-1088c-247 0 -448 201 -448 448c0 179 106 334 258 405c-1 14 -2 29 -2 43c0 283 229 512 512 512c214 0 397 -131 474 -318c44 39 102 62 166 62c141 0 256 -115 256 -256c0 -51 -15 -98 -41 -138c170 -40 297 -192 297 -374z" />
    <glyph glyph-name="beaker" unicode="&#xf0c3;" horiz-adv-x="1664" 
d="M1527 88c75 -119 22 -216 -119 -216h-1152c-141 0 -194 97 -119 216l503 793v399h-64c-35 0 -64 29 -64 64s29 64 64 64h512c35 0 64 -29 64 -64s-29 -64 -64 -64h-64v-399zM748 813l-272 -429h712l-272 429l-20 31v37v399h-128v-399v-37z" />
    <glyph glyph-name="cut" unicode="&#xf0c4;" horiz-adv-x="1792" 
d="M960 640c35 0 64 -29 64 -64s-29 -64 -64 -64s-64 29 -64 64s29 64 64 64zM1260 576l507 -398c18 -13 27 -35 25 -56c-3 -22 -16 -41 -35 -51l-128 -64c-9 -5 -19 -7 -29 -7c-11 0 -22 3 -31 8l-690 387l-110 -66c-4 -2 -8 -4 -12 -5c9 -31 13 -64 10 -97
c-9 -103 -78 -201 -188 -271c-85 -54 -183 -84 -277 -84c-90 0 -166 27 -222 78c-57 53 -86 129 -79 207c9 102 78 201 187 271c85 54 184 84 278 84c56 0 107 -11 151 -31c6 9 13 16 22 22l122 73l-122 73c-9 6 -16 13 -22 22c-44 -20 -95 -31 -151 -31
c-94 0 -193 30 -278 84c-109 70 -178 169 -187 271c-7 78 22 154 79 206c56 52 132 79 222 79c94 0 192 -30 277 -84c110 -69 179 -168 188 -271c3 -33 -1 -66 -10 -97c4 -1 8 -3 12 -5l110 -66l690 387c9 5 20 8 31 8c10 0 20 -2 29 -7l128 -64c19 -10 32 -29 35 -51
c2 -21 -7 -43 -25 -56zM579 836c61 56 23 157 -85 225c-61 39 -132 59 -192 59c-46 0 -87 -12 -113 -36c-61 -56 -23 -157 85 -225c61 -39 131 -59 192 -59c46 0 87 12 113 36zM494 91c108 68 146 169 85 225c-26 24 -67 36 -113 36c-61 0 -131 -20 -192 -59
c-108 -68 -146 -169 -85 -225c26 -24 67 -36 113 -36c60 0 131 20 192 59zM672 704l96 -58v11c0 23 13 44 33 56l14 8l-79 47l-26 -26c-8 -8 -14 -16 -22 -23c-3 -3 -5 -4 -7 -6zM896 480l96 -32l736 576l-128 64l-768 -431v-113l-160 -96l9 -8c2 -3 4 -4 7 -6
c8 -8 14 -16 22 -24l26 -26zM1600 64l128 64l-520 408l-177 -138c-3 -4 -8 -5 -13 -7z" />
    <glyph glyph-name="copy" unicode="&#xf0c5;" horiz-adv-x="1792" 
d="M1696 1152c53 0 96 -43 96 -96v-1216c0 -53 -43 -96 -96 -96h-960c-53 0 -96 43 -96 96v288h-544c-53 0 -96 43 -96 96v672c0 53 31 127 68 164l408 408c37 37 111 68 164 68h416c53 0 96 -43 96 -96v-328c39 23 89 40 128 40h416zM1152 939l-299 -299h299v299zM512 1323
l-299 -299h299v299zM708 676l316 316v416h-384v-416c0 -53 -43 -96 -96 -96h-416v-640h512v256c0 53 31 127 68 164zM1664 -128v1152h-384v-416c0 -53 -43 -96 -96 -96h-416v-640h896z" />
    <glyph glyph-name="paper_clip" unicode="&#xf0c6;" horiz-adv-x="1408" 
d="M1404 151c0 -156 -119 -275 -275 -275c-88 0 -173 38 -235 100l-777 776c-71 72 -113 170 -113 271c0 212 167 381 379 381c102 0 200 -41 273 -113l605 -606c6 -6 10 -14 10 -22c0 -21 -56 -77 -77 -77c-9 0 -17 4 -23 10l-606 607c-48 47 -113 77 -181 77
c-142 0 -252 -115 -252 -256c0 -68 28 -133 76 -181l776 -777c38 -38 91 -63 145 -63c85 0 148 63 148 148c0 55 -25 107 -63 145l-581 581c-16 15 -38 24 -60 24c-38 0 -67 -28 -67 -67c0 -22 10 -43 25 -59l410 -410c6 -6 10 -14 10 -22c0 -21 -57 -78 -78 -78
c-8 0 -16 4 -22 10l-410 410c-40 39 -63 94 -63 149c0 110 86 196 196 196c56 0 110 -23 149 -63l581 -581c63 -62 100 -147 100 -235z" />
    <glyph glyph-name="save" unicode="&#xf0c7;" 
d="M384 0h768v384h-768v-384zM1280 0h128v896c0 19 -17 60 -30 73l-281 281c-14 14 -53 30 -73 30v-416c0 -53 -43 -96 -96 -96h-576c-53 0 -96 43 -96 96v416h-128v-1280h128v416c0 53 43 96 96 96h832c53 0 96 -43 96 -96v-416zM896 928v320c0 17 -15 32 -32 32h-192
c-17 0 -32 -15 -32 -32v-320c0 -17 15 -32 32 -32h192c17 0 32 15 32 32zM1536 896v-928c0 -53 -43 -96 -96 -96h-1344c-53 0 -96 43 -96 96v1344c0 53 43 96 96 96h928c53 0 126 -30 164 -68l280 -280c38 -38 68 -111 68 -164z" />
    <glyph glyph-name="sign_blank" unicode="&#xf0c8;" 
d="M1536 1120v-960c0 -159 -129 -288 -288 -288h-960c-159 0 -288 129 -288 288v960c0 159 129 288 288 288h960c159 0 288 -129 288 -288z" />
    <glyph glyph-name="reorder" unicode="&#xf0c9;" 
d="M1536 192v-128c0 -35 -29 -64 -64 -64h-1408c-35 0 -64 29 -64 64v128c0 35 29 64 64 64h1408c35 0 64 -29 64 -64zM1536 704v-128c0 -35 -29 -64 -64 -64h-1408c-35 0 -64 29 -64 64v128c0 35 29 64 64 64h1408c35 0 64 -29 64 -64zM1536 1216v-128
c0 -35 -29 -64 -64 -64h-1408c-35 0 -64 29 -64 64v128c0 35 29 64 64 64h1408c35 0 64 -29 64 -64z" />
    <glyph glyph-name="ul" unicode="&#xf0ca;" horiz-adv-x="1792" 
d="M384 128c0 -106 -86 -192 -192 -192s-192 86 -192 192s86 192 192 192s192 -86 192 -192zM384 640c0 -106 -86 -192 -192 -192s-192 86 -192 192s86 192 192 192s192 -86 192 -192zM1792 224v-192c0 -17 -15 -32 -32 -32h-1216c-17 0 -32 15 -32 32v192c0 17 15 32 32 32
h1216c17 0 32 -15 32 -32zM384 1152c0 -106 -86 -192 -192 -192s-192 86 -192 192s86 192 192 192s192 -86 192 -192zM1792 736v-192c0 -17 -15 -32 -32 -32h-1216c-17 0 -32 15 -32 32v192c0 17 15 32 32 32h1216c17 0 32 -15 32 -32zM1792 1248v-192
c0 -17 -15 -32 -32 -32h-1216c-17 0 -32 15 -32 32v192c0 17 15 32 32 32h1216c17 0 32 -15 32 -32z" />
    </font>
</defs>
</svg>
