<?xml version="1.0" standalone="no"?>
<!DOCTYPE svg PUBLIC "-//W3C//DTD SVG 1.1//EN" "http://www.w3.org/Graphics/SVG/1.1/DTD/svg11.dtd" >
<!--
2018-2-23: Created with FontForge (http://fontforge.org)
-->
<svg xmlns="http://www.w3.org/2000/svg" xmlns:xlink="http://www.w3.org/1999/xlink" version="1.1">
<metadata>
Created by FontForge 20170925 at Fri Feb 23 21:05:48 2018
 By Julien Deswaef
The Fork Awesome font is licensed under the SIL OFL 1.1 (http://scripts.sil.org/OFL). Fork Awesome is a fork based of off Font Awesome 4.7.0 by Dave Gandy. More info on licenses at https://forkawesome.github.io
</metadata>
<defs>
<font id="forkawesome" horiz-adv-x="1536" >
  <font-face 
    font-family="forkawesome"
    font-weight="400"
    font-stretch="normal"
    units-per-em="1792"
    panose-1="2 0 5 3 0 0 0 0 0 0"
    ascent="1536"
    descent="-256"
    bbox="-0.653061 -264 2304.01 1536.25"
    underline-thickness="89.6"
    underline-position="-179.2"
    unicode-range="U+0020-F2F7"
  />
    <missing-glyph />
    <glyph glyph-name="space" unicode=" " horiz-adv-x="200" 
 />
    <glyph glyph-name="code" unicode="&#xf121;" horiz-adv-x="1830" 
d="M572 137l-50 -50c-13 -13 -33 -13 -46 0l-466 466c-13 13 -13 33 0 46l466 466c13 13 33 13 46 0l50 -50c13 -13 13 -33 0 -46l-393 -393l393 -393c13 -13 13 -33 0 -46zM1163 1204l-373 -1291c-5 -17 -23 -27 -39 -22l-62 17c-17 5 -27 23 -22 40l373 1291
c5 17 23 27 39 22l62 -17c17 -5 27 -23 22 -40zM1820 553l-466 -466c-13 -13 -33 -13 -46 0l-50 50c-13 13 -13 33 0 46l393 393l-393 393c-13 13 -13 33 0 46l50 50c13 13 33 13 46 0l466 -466c13 -13 13 -33 0 -46z" />
    <glyph glyph-name="chevron-circle-right" unicode="&#xf138;" 
d="M717 141l454 454c25 25 25 65 0 90l-454 454c-25 25 -65 25 -90 0l-102 -102c-25 -25 -25 -65 0 -90l307 -307l-307 -307c-25 -25 -25 -65 0 -90l102 -102c25 -25 65 -25 90 0zM1536 640c0 -424 -344 -768 -768 -768s-768 344 -768 768s344 768 768 768
s768 -344 768 -768z" />
    <glyph glyph-name="crosshairs" unicode="&#xf05b;" 
d="M1197 512h-109c-35 0 -64 29 -64 64v128c0 35 29 64 64 64h109c-43 144 -157 258 -301 301v-109c0 -35 -29 -64 -64 -64h-128c-35 0 -64 29 -64 64v109c-144 -43 -258 -157 -301 -301h109c35 0 64 -29 64 -64v-128c0 -35 -29 -64 -64 -64h-109c43 -144 157 -258 301 -301
v109c0 35 29 64 64 64h128c35 0 64 -29 64 -64v-109c144 43 258 157 301 301zM1536 704v-128c0 -35 -29 -64 -64 -64h-143c-49 -215 -218 -384 -433 -433v-143c0 -35 -29 -64 -64 -64h-128c-35 0 -64 29 -64 64v143c-215 49 -384 218 -433 433h-143c-35 0 -64 29 -64 64v128
c0 35 29 64 64 64h143c49 215 218 384 433 433v143c0 35 29 64 64 64h128c35 0 64 -29 64 -64v-143c215 -49 384 -218 433 -433h143c35 0 64 -29 64 -64z" />
    <glyph glyph-name="gg" unicode="&#xf260;" horiz-adv-x="1920" 
d="M672 736l384 -384l-384 -384l-672 672l672 672l168 -168l-96 -96l-72 72l-480 -480l480 -480l193 193l-289 287zM1248 1312l672 -672l-672 -672l-168 168l96 96l72 -72l480 480l-480 480l-193 -193l289 -287l-96 -96l-384 384z" />
    <glyph glyph-name="wpforms" unicode="&#xf298;" 
d="M515 625v-128h-252v128h252zM515 880v-127h-252v127h252zM1273 369v-128h-341v128h341zM1273 625v-128h-672v128h672zM1273 880v-127h-672v127h672zM1408 20v1240c0 11 -9 20 -20 20h-32l-378 -256l-210 171l-210 -171l-378 256h-32c-11 0 -20 -9 -20 -20v-1240
c0 -11 9 -20 20 -20h1240c11 0 20 9 20 20zM553 1130l185 150h-406zM983 1130l221 150h-406zM1536 1260v-1240c0 -82 -66 -148 -148 -148h-1240c-82 0 -148 66 -148 148v1240c0 82 66 148 148 148h1240c82 0 148 -66 148 -148z" />
    <glyph glyph-name="angle-double-left" unicode="&#xf100;" horiz-adv-x="966" 
d="M582 160c0 -8 -4 -17 -10 -23l-50 -50c-6 -6 -15 -10 -23 -10s-17 4 -23 10l-466 466c-6 6 -10 15 -10 23s4 17 10 23l466 466c6 6 15 10 23 10s17 -4 23 -10l50 -50c6 -6 10 -15 10 -23s-4 -17 -10 -23l-393 -393l393 -393c6 -6 10 -15 10 -23zM966 160
c0 -8 -4 -17 -10 -23l-50 -50c-6 -6 -15 -10 -23 -10s-17 4 -23 10l-466 466c-6 6 -10 15 -10 23s4 17 10 23l466 466c6 6 15 10 23 10s17 -4 23 -10l50 -50c6 -6 10 -15 10 -23s-4 -17 -10 -23l-393 -393l393 -393c6 -6 10 -15 10 -23z" />
    <glyph glyph-name="list" unicode="&#xf03a;" horiz-adv-x="1792" 
d="M256 224v-192c0 -17 -15 -32 -32 -32h-192c-17 0 -32 15 -32 32v192c0 17 15 32 32 32h192c17 0 32 -15 32 -32zM256 608v-192c0 -17 -15 -32 -32 -32h-192c-17 0 -32 15 -32 32v192c0 17 15 32 32 32h192c17 0 32 -15 32 -32zM256 992v-192c0 -17 -15 -32 -32 -32h-192
c-17 0 -32 15 -32 32v192c0 17 15 32 32 32h192c17 0 32 -15 32 -32zM1792 224v-192c0 -17 -15 -32 -32 -32h-1344c-17 0 -32 15 -32 32v192c0 17 15 32 32 32h1344c17 0 32 -15 32 -32zM256 1376v-192c0 -17 -15 -32 -32 -32h-192c-17 0 -32 15 -32 32v192
c0 17 15 32 32 32h192c17 0 32 -15 32 -32zM1792 608v-192c0 -17 -15 -32 -32 -32h-1344c-17 0 -32 15 -32 32v192c0 17 15 32 32 32h1344c17 0 32 -15 32 -32zM1792 992v-192c0 -17 -15 -32 -32 -32h-1344c-17 0 -32 15 -32 32v192c0 17 15 32 32 32h1344
c17 0 32 -15 32 -32zM1792 1376v-192c0 -17 -15 -32 -32 -32h-1344c-17 0 -32 15 -32 32v192c0 17 15 32 32 32h1344c17 0 32 -15 32 -32z" />
    <glyph glyph-name="foursquare" unicode="&#xf180;" horiz-adv-x="1192" 
d="M956 1102l37 194c7 32 -17 57 -44 57h-712c-32 0 -54 -29 -54 -54v-1101c0 -3 3 -4 6 -1c262 315 291 352 291 352c30 35 42 41 86 41h239c33 0 52 28 55 44s31 162 37 191s-21 59 -48 59h-294c-39 0 -67 28 -67 67v42c0 39 28 66 67 66h346c24 0 51 22 55 43zM1183 1324
c-37 -180 -148 -749 -158 -790c-12 -47 -30 -129 -144 -129h-271c-11 0 -12 1 -22 -10c0 0 -7 -8 -426 -494c-33 -38 -87 -31 -107 -23s-55 32 -55 98v1410c0 58 36 150 158 150h888c130 0 165 -74 137 -212zM1183 1324l-158 -790c10 41 121 610 158 790z" />
    <glyph glyph-name="th" unicode="&#xf00a;" horiz-adv-x="1792" 
d="M512 288v-192c0 -53 -43 -96 -96 -96h-320c-53 0 -96 43 -96 96v192c0 53 43 96 96 96h320c53 0 96 -43 96 -96zM512 800v-192c0 -53 -43 -96 -96 -96h-320c-53 0 -96 43 -96 96v192c0 53 43 96 96 96h320c53 0 96 -43 96 -96zM1152 288v-192c0 -53 -43 -96 -96 -96h-320
c-53 0 -96 43 -96 96v192c0 53 43 96 96 96h320c53 0 96 -43 96 -96zM512 1312v-192c0 -53 -43 -96 -96 -96h-320c-53 0 -96 43 -96 96v192c0 53 43 96 96 96h320c53 0 96 -43 96 -96zM1152 800v-192c0 -53 -43 -96 -96 -96h-320c-53 0 -96 43 -96 96v192c0 53 43 96 96 96
h320c53 0 96 -43 96 -96zM1792 288v-192c0 -53 -43 -96 -96 -96h-320c-53 0 -96 43 -96 96v192c0 53 43 96 96 96h320c53 0 96 -43 96 -96zM1152 1312v-192c0 -53 -43 -96 -96 -96h-320c-53 0 -96 43 -96 96v192c0 53 43 96 96 96h320c53 0 96 -43 96 -96zM1792 800v-192
c0 -53 -43 -96 -96 -96h-320c-53 0 -96 43 -96 96v192c0 53 43 96 96 96h320c53 0 96 -43 96 -96zM1792 1312v-192c0 -53 -43 -96 -96 -96h-320c-53 0 -96 43 -96 96v192c0 53 43 96 96 96h320c53 0 96 -43 96 -96z" />
    <glyph glyph-name="angle-left" unicode="&#xf104;" horiz-adv-x="582" 
d="M582 992c0 -8 -4 -17 -10 -23l-393 -393l393 -393c6 -6 10 -15 10 -23s-4 -17 -10 -23l-50 -50c-6 -6 -15 -10 -23 -10s-17 4 -23 10l-466 466c-6 6 -10 15 -10 23s4 17 10 23l466 466c6 6 15 10 23 10s17 -4 23 -10l50 -50c6 -6 10 -14 10 -23z" />
    <glyph glyph-name="recycle" unicode="&#xf1b8;" horiz-adv-x="1760" 
d="M820 367l-15 -368l-2 -22l-420 29c-52 4 -95 53 -114 97c-40 93 12 203 42 292c0 0 77 -12 509 -28zM433 953l180 -379l-147 92c-225 -257 -246 -448 -246 -448l-190 357c-39 58 -4 121 -4 121s35 63 114 188l-140 86zM1664 436l-188 -359c-26 -65 -98 -71 -98 -71
s-71 -7 -219 -12l8 -164l-230 367l211 362l7 -173c339 -41 509 50 509 50zM879 1360c0 0 -47 -62 -265 -435l-317 187l-19 12l225 356c28 44 91 60 140 55c100 -9 172 -106 236 -175zM1534 1053l212 -363c27 -45 11 -108 -15 -150c-54 -84 -174 -104 -264 -129
c0 0 -34 71 -265 436l313 195zM1391 1279l142 83l-220 -373l-419 20l151 86c-120 319 -279 429 -279 429l405 -1c70 6 108 -54 108 -54s39 -61 112 -190z" />
    <glyph glyph-name="file-code-o" unicode="&#xf1c9;" 
d="M1468 1156c37 -37 68 -111 68 -164v-1152c0 -53 -43 -96 -96 -96h-1344c-53 0 -96 43 -96 96v1600c0 53 43 96 96 96h896c53 0 127 -31 164 -68zM1024 1400v-376h376c-6 17 -15 34 -22 41l-313 313c-7 7 -24 16 -41 22zM1408 -128v1024h-416c-53 0 -96 43 -96 96v416
h-768v-1536h1280zM480 768c11 14 31 17 45 6l51 -38c14 -11 17 -31 6 -45l-182 -243l182 -243c11 -14 8 -34 -6 -45l-51 -38c-14 -11 -34 -8 -45 6l-226 301c-8 11 -8 27 0 38zM1282 467c8 -11 8 -27 0 -38l-226 -301c-11 -14 -31 -17 -45 -6l-51 38c-14 11 -17 31 -6 45
l182 243l-182 243c-11 14 -8 34 6 45l51 38c14 11 34 8 45 -6zM662 6c-18 3 -29 20 -26 37l138 831c3 18 20 29 37 26l63 -10c18 -3 29 -20 26 -37l-138 -831c-3 -18 -20 -29 -37 -26z" />
    <glyph glyph-name="thumb-tack" unicode="&#xf08d;" horiz-adv-x="1152" 
d="M480 672v448c0 18 -14 32 -32 32s-32 -14 -32 -32v-448c0 -18 14 -32 32 -32s32 14 32 32zM1152 320c0 -35 -29 -64 -64 -64h-429l-51 -483c-2 -16 -15 -29 -31 -29h-1c-16 0 -29 11 -32 27l-76 485h-404c-35 0 -64 29 -64 64c0 164 124 320 256 320v512
c-70 0 -128 58 -128 128s58 128 128 128h640c70 0 128 -58 128 -128s-58 -128 -128 -128v-512c132 0 256 -156 256 -320z" />
    <glyph glyph-name="fax" unicode="&#xf1ac;" horiz-adv-x="1792" 
d="M288 1152c88 0 160 -72 160 -160v-1088c0 -88 -72 -160 -160 -160h-128c-88 0 -160 72 -160 160v1088c0 88 72 160 160 160h128zM1664 989c76 -44 128 -127 128 -221v-768c0 -141 -115 -256 -256 -256h-864c-88 0 -160 72 -160 160v1536c0 53 43 96 96 96h672
c53 0 127 -31 164 -68l152 -152c37 -37 68 -111 68 -164v-163zM928 0v128c0 18 -14 32 -32 32h-128c-18 0 -32 -14 -32 -32v-128c0 -18 14 -32 32 -32h128c18 0 32 14 32 32zM928 256v128c0 18 -14 32 -32 32h-128c-18 0 -32 -14 -32 -32v-128c0 -18 14 -32 32 -32h128
c18 0 32 14 32 32zM928 512v128c0 18 -14 32 -32 32h-128c-18 0 -32 -14 -32 -32v-128c0 -18 14 -32 32 -32h128c18 0 32 14 32 32zM1184 0v128c0 18 -14 32 -32 32h-128c-18 0 -32 -14 -32 -32v-128c0 -18 14 -32 32 -32h128c18 0 32 14 32 32zM1184 256v128
c0 18 -14 32 -32 32h-128c-18 0 -32 -14 -32 -32v-128c0 -18 14 -32 32 -32h128c18 0 32 14 32 32zM1184 512v128c0 18 -14 32 -32 32h-128c-18 0 -32 -14 -32 -32v-128c0 -18 14 -32 32 -32h128c18 0 32 14 32 32zM1440 0v128c0 18 -14 32 -32 32h-128
c-18 0 -32 -14 -32 -32v-128c0 -18 14 -32 32 -32h128c18 0 32 14 32 32zM1440 256v128c0 18 -14 32 -32 32h-128c-18 0 -32 -14 -32 -32v-128c0 -18 14 -32 32 -32h128c18 0 32 14 32 32zM1440 512v128c0 18 -14 32 -32 32h-128c-18 0 -32 -14 -32 -32v-128
c0 -18 14 -32 32 -32h128c18 0 32 14 32 32zM1536 896v256h-160c-53 0 -96 43 -96 96v160h-640v-512h896z" />
    <glyph glyph-name="xing-square" unicode="&#xf169;" 
d="M685 771c0 0 0 1 -126 222c-10 16 -24 34 -52 34h-184c-12 0 -21 -4 -26 -11c-5 -8 -4 -19 1 -29l125 -216v-1l-196 -346c-6 -10 -5 -20 0 -28s13 -13 24 -13h185c27 0 41 19 50 36c192 339 199 352 199 352zM1309 1268c-5 8 -13 12 -24 12h-187c-27 0 -39 -17 -49 -35
c-398 -706 -411 -729 -411 -729s0 -1 262 -481c9 -16 23 -35 52 -35h184c11 0 20 4 25 12s5 18 -1 28l-260 476v1l409 723c5 10 5 20 0 28zM1536 1120v-960c0 -159 -129 -288 -288 -288h-960c-159 0 -288 129 -288 288v960c0 159 129 288 288 288h960
c159 0 288 -129 288 -288z" />
    <glyph glyph-name="google-plus-official" unicode="&#xf2b3;" 
d="M917 631c0 22 -2 43 -6 64h-362v-132h217c-16 -106 -116 -165 -217 -165c-133 0 -239 110 -239 242s106 242 239 242c56 0 112 -19 153 -59l104 101c-71 66 -160 100 -257 100c-213 0 -384 -172 -384 -384s171 -384 384 -384c221 0 368 156 368 375zM1262 585h109v110
h-109v110h-110v-110h-110v-110h110v-110h110v110zM1536 640c0 -424 -344 -768 -768 -768s-768 344 -768 768s344 768 768 768s768 -344 768 -768z" />
    <glyph glyph-name="quora" unicode="&#xf2c4;" horiz-adv-x="1734" 
d="M1226 749c0 417 -130 631 -435 631c-300 0 -430 -214 -430 -631c0 -415 130 -627 430 -627c48 0 91 5 131 17c-62 122 -135 245 -277 245c-27 0 -54 -4 -79 -16l-49 97c59 51 154 91 276 91c191 0 288 -92 366 -209c45 100 67 235 67 402zM1616 117h117
c7 -72 -29 -373 -356 -373c-198 0 -302 115 -381 249c-65 -18 -135 -27 -205 -27c-400 0 -791 319 -791 783c0 468 392 787 791 787c407 0 794 -317 794 -787c0 -262 -122 -475 -299 -612c57 -86 116 -143 198 -143c90 0 126 69 132 123z" />
    <glyph glyph-name="volume-up" unicode="&#xf028;" horiz-adv-x="1664" 
d="M768 1184v-1088c0 -35 -29 -64 -64 -64c-17 0 -33 7 -45 19l-333 333h-262c-35 0 -64 29 -64 64v384c0 35 29 64 64 64h262l333 333c12 12 28 19 45 19c35 0 64 -29 64 -64zM1152 640c0 -100 -61 -197 -155 -235c-8 -4 -17 -5 -25 -5c-35 0 -64 28 -64 64
c0 76 116 55 116 176s-116 100 -116 176c0 36 29 64 64 64c8 0 17 -1 25 -5c94 -37 155 -135 155 -235zM1408 640c0 -203 -122 -392 -310 -471c-8 -3 -17 -5 -25 -5c-36 0 -65 29 -65 64c0 28 16 47 39 59c27 14 52 26 76 44c99 72 157 187 157 309s-58 237 -157 309
c-24 18 -49 30 -76 44c-23 12 -39 31 -39 59c0 35 29 64 64 64c9 0 18 -2 26 -5c188 -79 310 -268 310 -471zM1664 640c0 -307 -183 -585 -465 -706c-8 -3 -17 -5 -26 -5c-35 0 -64 29 -64 64c0 29 15 45 39 59c14 8 30 13 45 21c28 15 56 32 82 51c164 121 261 312 261 516
s-97 395 -261 516c-26 19 -54 36 -82 51c-15 8 -31 13 -45 21c-24 14 -39 30 -39 59c0 35 29 64 64 64c9 0 18 -2 26 -5c282 -121 465 -399 465 -706z" />
    <glyph glyph-name="spoon" unicode="&#xf1b1;" horiz-adv-x="640" 
d="M640 1008c0 -200 -87 -331 -209 -379l45 -821c2 -35 -25 -64 -60 -64h-192c-35 0 -62 29 -60 64l45 821c-122 48 -209 179 -209 379c0 256 143 528 320 528s320 -272 320 -528z" />
    <glyph glyph-name="facebook" unicode="&#xf09a;" horiz-adv-x="864" 
d="M864 1524v-264h-157c-123 0 -146 -59 -146 -144v-189h293l-39 -296h-254v-759h-306v759h-255v296h255v218c0 253 155 391 381 391c108 0 201 -8 228 -12z" />
    <glyph glyph-name="universal-access" unicode="&#xf29a;" horiz-adv-x="1792" 
d="M1374 879c-8 34 -42 55 -77 47c-143 -34 -273 -62 -401 -62s-258 28 -401 62c-35 8 -69 -13 -77 -47c-8 -35 13 -69 47 -77c106 -25 205 -47 303 -58c-4 -338 -41 -432 -83 -540l-9 -21c-13 -33 4 -70 37 -83c7 -3 15 -4 23 -4c26 0 50 15 60 41l8 20
c28 72 54 139 71 259h42c17 -120 43 -187 71 -259l8 -20c10 -26 34 -41 60 -41c8 0 16 1 23 4c33 13 50 50 37 83l-9 21c-42 108 -79 202 -83 540c98 11 197 33 303 58c34 8 55 42 47 77zM1024 1024c0 71 -57 128 -128 128s-128 -57 -128 -128s57 -128 128 -128
s128 57 128 128zM1600 640c0 -389 -315 -704 -704 -704s-704 315 -704 704s315 704 704 704s704 -315 704 -704zM896 1408c-423 0 -768 -345 -768 -768s345 -768 768 -768s768 345 768 768s-345 768 -768 768zM1792 640c0 -495 -401 -896 -896 -896s-896 401 -896 896
s401 896 896 896s896 -401 896 -896z" />
    <glyph glyph-name="cloud-download" unicode="&#xf0ed;" horiz-adv-x="1920" 
d="M1280 608c0 18 -14 32 -32 32h-224v352c0 17 -15 32 -32 32h-192c-17 0 -32 -15 -32 -32v-352h-224c-18 0 -32 -15 -32 -32c0 -8 3 -17 9 -23l352 -352c6 -6 14 -9 23 -9c8 0 17 3 23 9l351 351c6 7 10 15 10 24zM1920 384c0 -212 -172 -384 -384 -384h-1088
c-247 0 -448 201 -448 448c0 174 101 332 258 405c-1 15 -2 29 -2 43c0 283 229 512 512 512c208 0 395 -126 474 -318c46 40 105 62 166 62c141 0 256 -115 256 -256c0 -49 -14 -97 -41 -138c174 -41 297 -196 297 -374z" />
    <glyph glyph-name="trophy" unicode="&#xf091;" horiz-adv-x="1664" 
d="M458 653c-42 92 -74 214 -74 371h-256v-96c0 -98 133 -234 330 -275zM1536 928v96h-256c0 -157 -32 -279 -74 -371c197 41 330 177 330 275zM1664 1056v-128c0 -190 -230 -400 -542 -415c-40 -51 -77 -81 -95 -95c-53 -48 -67 -98 -67 -162s32 -128 128 -128
s192 -64 192 -160v-64c0 -18 -14 -32 -32 -32h-832c-18 0 -32 14 -32 32v64c0 96 96 160 192 160s128 64 128 128s-14 114 -67 162c-18 14 -55 44 -95 95c-312 15 -542 225 -542 415v128c0 53 43 96 96 96h288v96c0 88 72 160 160 160h576c88 0 160 -72 160 -160v-96h288
c53 0 96 -43 96 -96z" />
    <glyph glyph-name="caret-up" unicode="&#xf0d8;" horiz-adv-x="1024" 
d="M1024 320c0 -35 -29 -64 -64 -64h-896c-35 0 -64 29 -64 64c0 17 7 33 19 45l448 448c12 12 28 19 45 19s33 -7 45 -19l448 -448c12 -12 19 -28 19 -45z" />
    <glyph glyph-name="magic" unicode="&#xf0d0;" horiz-adv-x="1637" 
d="M1163 955l293 293l-107 107l-293 -293zM1610 1248c0 -17 -6 -33 -18 -45l-1286 -1286c-12 -12 -28 -18 -45 -18s-33 6 -45 18l-198 198c-12 12 -18 28 -18 45s6 33 18 45l1286 1286c12 12 28 18 45 18s33 -6 45 -18l198 -198c12 -12 18 -28 18 -45zM259 1438l98 -30
l-98 -30l-30 -98l-30 98l-98 30l98 30l30 98zM609 1276l196 -60l-196 -60l-60 -196l-60 196l-196 60l196 60l60 196zM1539 798l98 -30l-98 -30l-30 -98l-30 98l-98 30l98 30l30 98zM899 1438l98 -30l-98 -30l-30 -98l-30 98l-98 30l98 30l30 98z" />
    <glyph glyph-name="hourglass-o" unicode="&#xf250;" 
d="M1408 1408c0 -370 -177 -638 -373 -768c196 -130 373 -398 373 -768h96c18 0 32 -14 32 -32v-64c0 -18 -14 -32 -32 -32h-1472c-18 0 -32 14 -32 32v64c0 18 14 32 32 32h96c0 370 177 638 373 768c-196 130 -373 398 -373 768h-96c-18 0 -32 14 -32 32v64
c0 18 14 32 32 32h1472c18 0 32 -14 32 -32v-64c0 -18 -14 -32 -32 -32h-96zM874 700c202 76 406 343 406 708h-1024c0 -365 204 -632 406 -708c25 -9 42 -33 42 -60s-17 -51 -42 -60c-202 -76 -406 -343 -406 -708h1024c0 365 -204 632 -406 708c-25 9 -42 33 -42 60
s17 51 42 60z" />
    <glyph glyph-name="balance-scale" unicode="&#xf24e;" horiz-adv-x="2176" 
d="M1728 1088l-384 -704h768zM448 1088l-384 -704h768zM1269 1280c-19 -54 -63 -98 -117 -117v-1291h608c18 0 32 -14 32 -32v-64c0 -18 -14 -32 -32 -32h-1344c-18 0 -32 14 -32 32v64c0 18 14 32 32 32h608v1291c-54 19 -98 63 -117 117h-491c-18 0 -32 14 -32 32v64
c0 18 14 32 32 32h491c27 75 97 128 181 128s154 -53 181 -128h491c18 0 32 -14 32 -32v-64c0 -18 -14 -32 -32 -32h-491zM1088 1264c44 0 80 36 80 80s-36 80 -80 80s-80 -36 -80 -80s36 -80 80 -80zM2176 384c0 -206 -285 -288 -448 -288s-448 82 -448 288
c0 39 349 657 392 735c11 20 33 33 56 33s45 -13 56 -33c43 -78 392 -696 392 -735zM896 384c0 -206 -285 -288 -448 -288s-448 82 -448 288c0 39 349 657 392 735c11 20 33 33 56 33s45 -13 56 -33c43 -78 392 -696 392 -735z" />
    <glyph glyph-name="upload" unicode="&#xf093;" horiz-adv-x="1664" 
d="M1280 64c0 35 -29 64 -64 64s-64 -29 -64 -64s29 -64 64 -64s64 29 64 64zM1536 64c0 35 -29 64 -64 64s-64 -29 -64 -64s29 -64 64 -64s64 29 64 64zM1664 288v-320c0 -53 -43 -96 -96 -96h-1472c-53 0 -96 43 -96 96v320c0 53 43 96 96 96h427c27 -74 98 -128 181 -128
h256c83 0 154 54 181 128h427c53 0 96 -43 96 -96zM1339 936c-10 -24 -33 -40 -59 -40h-256v-448c0 -35 -29 -64 -64 -64h-256c-35 0 -64 29 -64 64v448h-256c-26 0 -49 16 -59 40c-10 23 -5 51 14 69l448 448c12 13 29 19 45 19s33 -6 45 -19l448 -448
c19 -18 24 -46 14 -69z" />
    <glyph glyph-name="magnet" unicode="&#xf076;" 
d="M1536 704v-128c0 -408 -323 -704 -768 -704s-768 296 -768 704v128c0 35 29 64 64 64h384c35 0 64 -29 64 -64v-128c0 -183 213 -192 256 -192s256 9 256 192v128c0 35 29 64 64 64h384c35 0 64 -29 64 -64zM512 1344v-384c0 -35 -29 -64 -64 -64h-384
c-35 0 -64 29 -64 64v384c0 35 29 64 64 64h384c35 0 64 -29 64 -64zM1536 1344v-384c0 -35 -29 -64 -64 -64h-384c-35 0 -64 29 -64 64v384c0 35 29 64 64 64h384c35 0 64 -29 64 -64z" />
    <glyph glyph-name="adjust" unicode="&#xf042;" 
d="M768 96v1088c-300 0 -544 -244 -544 -544s244 -544 544 -544zM1536 640c0 -424 -344 -768 -768 -768s-768 344 -768 768s344 768 768 768s768 -344 768 -768z" />
    <glyph glyph-name="subway" unicode="&#xf239;" 
d="M1088 1536c247 0 448 -143 448 -320v-896c0 -173 -191 -313 -431 -319l213 -202c21 -20 7 -55 -22 -55h-1056c-29 0 -43 35 -22 55l213 202c-240 6 -431 146 -431 319v896c0 177 201 320 448 320h640zM288 224c88 0 160 72 160 160s-72 160 -160 160s-160 -72 -160 -160
s72 -160 160 -160zM704 768v512h-544v-512h544zM1248 224c88 0 160 72 160 160s-72 160 -160 160s-160 -72 -160 -160s72 -160 160 -160zM1408 768v512h-576v-512h576z" />
    <glyph glyph-name="chevron-down" unicode="&#xf078;" horiz-adv-x="1612" 
d="M1593 728l-742 -741c-25 -25 -65 -25 -90 0l-742 741c-25 25 -25 66 0 91l166 165c25 25 65 25 90 0l531 -531l531 531c25 25 65 25 90 0l166 -165c25 -25 25 -66 0 -91z" />
    <glyph glyph-name="location-arrow" unicode="&#xf124;" horiz-adv-x="1408" 
d="M1401 1187l-640 -1280c-11 -22 -33 -35 -57 -35c-5 0 -10 1 -15 2c-29 7 -49 32 -49 62v576h-576c-30 0 -55 20 -62 49s7 59 33 72l1280 640c9 5 19 7 29 7c17 0 33 -6 45 -19c20 -19 25 -49 12 -74z" />
    <glyph glyph-name="check-circle" unicode="&#xf058;" 
d="M1284 802c0 17 -6 34 -18 46l-91 90c-12 12 -28 19 -45 19s-33 -7 -45 -19l-408 -407l-226 226c-12 12 -28 19 -45 19s-33 -7 -45 -19l-91 -90c-12 -12 -18 -29 -18 -46s6 -33 18 -45l362 -362c12 -12 29 -19 45 -19c17 0 34 7 46 19l543 543c12 12 18 28 18 45z
M1536 640c0 -424 -344 -768 -768 -768s-768 344 -768 768s344 768 768 768s768 -344 768 -768z" />
    <glyph glyph-name="arrow-down" unicode="&#xf063;" horiz-adv-x="1558" 
d="M1558 704c0 -34 -14 -67 -37 -90l-651 -652c-24 -23 -57 -37 -91 -37s-67 14 -90 37l-651 652c-24 23 -38 56 -38 90s14 67 38 91l74 75c24 23 57 37 91 37s67 -14 90 -37l294 -294v704c0 70 58 128 128 128h128c70 0 128 -58 128 -128v-704l294 294c23 23 56 37 90 37
s67 -14 91 -37l75 -75c23 -24 37 -57 37 -91z" />
    <glyph glyph-name="bicycle" unicode="&#xf206;" horiz-adv-x="2304" 
d="M762 384h-314c-53 0 -83 60 -51 102l188 251c-42 20 -88 31 -137 31c-176 0 -320 -144 -320 -320s144 -320 320 -320c155 0 284 110 314 256zM576 512h186c-12 56 -38 107 -75 148zM1056 512l288 384h-480l-99 -132c67 -66 112 -154 126 -252h165zM2176 448
c0 176 -144 320 -320 320c-43 0 -83 -9 -121 -24l174 -260c20 -30 12 -70 -17 -89c-11 -8 -24 -11 -36 -11c-21 0 -41 10 -53 29l-174 260c-57 -58 -93 -137 -93 -225c0 -176 144 -320 320 -320s320 144 320 320zM2304 448c0 -247 -201 -448 -448 -448s-448 201 -448 448
c0 132 58 251 149 333l-65 98l-353 -469c-12 -17 -31 -26 -51 -26h-197c-31 -217 -217 -384 -443 -384c-247 0 -448 201 -448 448s201 448 448 448c78 0 151 -20 215 -55l137 183h-224c-35 0 -64 29 -64 64s29 64 64 64h384v-128h435l-85 128h-222c-35 0 -64 29 -64 64
s29 64 64 64h256c21 0 41 -11 53 -28l267 -400c58 28 123 44 192 44c247 0 448 -201 448 -448z" />
    <glyph glyph-name="instagram" unicode="&#xf16d;" 
d="M1024 640c0 141 -115 256 -256 256s-256 -115 -256 -256s115 -256 256 -256s256 115 256 256zM1162 640c0 -218 -176 -394 -394 -394s-394 176 -394 394s176 394 394 394s394 -176 394 -394zM1270 1050c0 -51 -41 -92 -92 -92s-92 41 -92 92s41 92 92 92s92 -41 92 -92z
M768 1270c-112 0 -352 9 -453 -31c-35 -14 -61 -31 -88 -58s-44 -53 -58 -88c-40 -101 -31 -341 -31 -453s-9 -352 31 -453c14 -35 31 -61 58 -88s53 -44 88 -58c101 -40 341 -31 453 -31s352 -9 453 31c35 14 61 31 88 58s44 53 58 88c40 101 31 341 31 453s9 352 -31 453
c-14 35 -31 61 -58 88s-53 44 -88 58c-101 40 -341 31 -453 31zM1536 640c0 -106 1 -211 -5 -317c-6 -123 -34 -232 -124 -322s-199 -118 -322 -124c-106 -6 -211 -5 -317 -5s-211 -1 -317 5c-123 6 -232 34 -322 124s-118 199 -124 322c-6 106 -5 211 -5 317s-1 211 5 317
c6 123 34 232 124 322s199 118 322 124c106 6 211 5 317 5s211 1 317 -5c123 -6 232 -34 322 -124s118 -199 124 -322c6 -106 5 -211 5 -317z" />
    <glyph glyph-name="caret-square-o-up" unicode="&#xf151;" 
d="M1145 419c-11 -22 -33 -35 -57 -35h-640c-24 0 -46 13 -57 35c-11 21 -9 47 5 66l320 448c12 17 31 27 52 27s40 -10 52 -27l320 -448c14 -19 16 -45 5 -66zM1280 160v960c0 17 -15 32 -32 32h-960c-17 0 -32 -15 -32 -32v-960c0 -17 15 -32 32 -32h960c17 0 32 15 32 32
zM1536 1120v-960c0 -159 -129 -288 -288 -288h-960c-159 0 -288 129 -288 288v960c0 159 129 288 288 288h960c159 0 288 -129 288 -288z" />
    <glyph glyph-name="crop" unicode="&#xf125;" horiz-adv-x="1664" 
d="M557 256h595v595zM512 301l595 595h-595v-595zM1664 224v-192c0 -18 -14 -32 -32 -32h-224v-224c0 -18 -14 -32 -32 -32h-192c-18 0 -32 14 -32 32v224h-864c-18 0 -32 14 -32 32v864h-224c-18 0 -32 14 -32 32v192c0 18 14 32 32 32h224v224c0 18 14 32 32 32h192
c18 0 32 -14 32 -32v-224h851l246 247c13 12 33 12 46 0c12 -13 12 -33 0 -46l-247 -246v-851h224c18 0 32 -14 32 -32z" />
    <glyph glyph-name="external-link" unicode="&#xf08e;" horiz-adv-x="1792" 
d="M1408 608v-320c0 -159 -129 -288 -288 -288h-832c-159 0 -288 129 -288 288v832c0 159 129 288 288 288h704c18 0 32 -14 32 -32v-64c0 -18 -14 -32 -32 -32h-704c-88 0 -160 -72 -160 -160v-832c0 -88 72 -160 160 -160h832c88 0 160 72 160 160v320c0 18 14 32 32 32
h64c18 0 32 -14 32 -32zM1792 1472v-512c0 -35 -29 -64 -64 -64c-17 0 -33 7 -45 19l-176 176l-652 -652c-6 -6 -15 -10 -23 -10s-17 4 -23 10l-114 114c-6 6 -10 15 -10 23s4 17 10 23l652 652l-176 176c-12 12 -19 28 -19 45c0 35 29 64 64 64h512c35 0 64 -29 64 -64z
" />
    <glyph glyph-name="arrow-circle-down" unicode="&#xf0ab;" 
d="M1284 639c0 17 -6 33 -18 45l-91 91c-12 12 -28 18 -45 18s-33 -6 -45 -18l-189 -189v502c0 35 -29 64 -64 64h-128c-35 0 -64 -29 -64 -64v-502l-189 189c-12 12 -28 19 -45 19s-33 -7 -45 -19l-91 -91c-12 -12 -18 -28 -18 -45s6 -33 18 -45l362 -362l91 -91
c12 -12 28 -18 45 -18s33 6 45 18l91 91l362 362c12 12 18 28 18 45zM1536 640c0 -424 -344 -768 -768 -768s-768 344 -768 768s344 768 768 768s768 -344 768 -768z" />
    <glyph glyph-name="font-awesome" unicode="&#xf2b4;" horiz-adv-x="1499" 
d="M1499 1024v-839c0 -31 -20 -54 -49 -62c-107 -32 -227 -52 -338 -52c-150 0 -277 59 -443 59c-123 0 -250 -20 -370 -48v-338h-160v1368c-84 33 -139 115 -139 205c0 121 98 219 219 219s219 -98 219 -219c0 -90 -55 -172 -139 -205v-68c112 26 228 44 343 44
c66 0 132 -5 198 -15c86 -13 173 -43 261 -43c55 0 111 7 165 18c41 8 135 40 169 40c35 0 64 -29 64 -64z" />
    <glyph glyph-name="paper-plane" unicode="&#xf1d8;" horiz-adv-x="1792" 
d="M1764 1525c21 -15 31 -39 27 -64l-256 -1536c-3 -19 -15 -35 -32 -45c-9 -5 -20 -8 -31 -8c-8 0 -16 2 -24 5l-453 185l-242 -295c-12 -15 -30 -23 -49 -23c-7 0 -15 1 -22 4c-25 9 -42 33 -42 60v349l864 1059l-1069 -925l-395 162c-23 9 -38 30 -40 55
c-1 24 11 47 32 59l1664 960c10 6 21 9 32 9c13 0 26 -4 36 -11z" />
    <glyph glyph-name="meanpath" unicode="&#xf20c;" 
d="M1311 694v-114c0 -32 -19 -52 -51 -52h-202c-32 0 -52 20 -52 52v114c0 32 20 52 52 52h202c32 0 51 -20 51 -52zM821 464v250c0 71 -47 118 -118 118h-133c-45 0 -78 -19 -96 -52c-18 33 -51 52 -96 52h-130c-70 0 -118 -47 -118 -118v-250c0 -15 7 -22 21 -22h55
c15 0 22 7 22 22v230c0 32 19 52 52 52h94c32 0 52 -20 52 -52v-230c0 -15 6 -22 21 -22h54c15 0 22 7 22 22v230c0 32 20 52 52 52h97c32 0 51 -20 51 -52v-230c0 -15 7 -22 22 -22h55c14 0 21 7 21 22zM1410 560v154c0 71 -48 118 -119 118h-264c-71 0 -119 -47 -119 -118
v-410c0 -15 8 -21 22 -21h55c15 0 21 6 21 21v180c19 -26 49 -42 94 -42h191c71 0 119 48 119 118zM1536 1176v-1072c0 -128 -104 -232 -232 -232h-1072c-128 0 -232 104 -232 232v1072c0 128 104 232 232 232h1072c128 0 232 -104 232 -232z" />
    <glyph glyph-name="long-arrow-left" unicode="&#xf177;" horiz-adv-x="1728" 
d="M1728 736v-192c0 -18 -14 -32 -32 -32h-1248v-224c0 -13 -7 -24 -19 -29s-25 -3 -35 5l-384 350c-6 6 -10 14 -10 23s4 18 10 24l384 354c10 9 23 11 35 6c11 -5 19 -16 19 -29v-224h1248c18 0 32 -14 32 -32z" />
    <glyph glyph-name="download" unicode="&#xf019;" horiz-adv-x="1664" 
d="M1280 192c0 35 -29 64 -64 64s-64 -29 -64 -64s29 -64 64 -64s64 29 64 64zM1536 192c0 35 -29 64 -64 64s-64 -29 -64 -64s29 -64 64 -64s64 29 64 64zM1664 416v-320c0 -53 -43 -96 -96 -96h-1472c-53 0 -96 43 -96 96v320c0 53 43 96 96 96h465l135 -136
c37 -36 85 -56 136 -56s99 20 136 56l136 136h464c53 0 96 -43 96 -96zM1339 985c10 -24 5 -52 -14 -70l-448 -448c-12 -13 -29 -19 -45 -19s-33 6 -45 19l-448 448c-19 18 -24 46 -14 70c10 23 33 39 59 39h256v448c0 35 29 64 64 64h256c35 0 64 -29 64 -64v-448h256
c26 0 49 -16 59 -39z" />
    <glyph glyph-name="bold" unicode="&#xf032;" horiz-adv-x="1408" 
d="M555 15c44 -19 92 -32 140 -32c228 0 376 91 376 335c0 62 -8 127 -41 180c-93 150 -227 158 -388 158c-30 0 -73 0 -101 -10c0 -106 -1 -212 -1 -317c0 -69 -9 -256 15 -314zM541 761c36 -6 73 -7 109 -7c206 0 353 58 353 289c0 195 -173 262 -340 262
c-44 0 -87 -6 -130 -13c0 -101 8 -202 8 -303c0 -53 -1 -106 -1 -159c0 -23 0 -46 1 -69zM0 -128l2 94c64 16 129 17 191 43c35 59 30 163 30 230c0 22 2 978 -22 1025c-15 29 -162 36 -195 40l-4 83c238 4 476 21 713 21c45 0 91 -1 136 -1c226 0 475 -108 475 -368
c0 -179 -136 -246 -277 -310c190 -43 359 -172 359 -382c0 -344 -313 -458 -606 -458c-88 0 -176 6 -264 6c-179 0 -360 -16 -538 -23z" />
    <glyph glyph-name="caret-down" unicode="&#xf0d7;" horiz-adv-x="1024" 
d="M1024 832c0 -17 -7 -33 -19 -45l-448 -448c-12 -12 -28 -19 -45 -19s-33 7 -45 19l-448 448c-12 12 -19 28 -19 45c0 35 29 64 64 64h896c35 0 64 -29 64 -64z" />
    <glyph glyph-name="chevron-left" unicode="&#xf053;" horiz-adv-x="1036" 
d="M1017 1235l-531 -531l531 -531c25 -25 25 -65 0 -90l-166 -166c-25 -25 -65 -25 -90 0l-742 742c-25 25 -25 65 0 90l742 742c25 25 65 25 90 0l166 -166c25 -25 25 -65 0 -90z" />
    <glyph glyph-name="venus" unicode="&#xf221;" horiz-adv-x="1152" 
d="M1152 960c0 -296 -224 -540 -512 -572v-260h224c18 0 32 -14 32 -32v-64c0 -18 -14 -32 -32 -32h-224v-224c0 -18 -14 -32 -32 -32h-64c-18 0 -32 14 -32 32v224h-224c-18 0 -32 14 -32 32v64c0 18 14 32 32 32h224v260c-303 33 -535 302 -510 619
c22 272 238 495 508 525c348 39 642 -232 642 -572zM128 960c0 -247 201 -448 448 -448s448 201 448 448s-201 448 -448 448s-448 -201 -448 -448z" />
    <glyph glyph-name="font" unicode="&#xf031;" horiz-adv-x="1664" 
d="M725 977l-170 -450c99 -1 198 -4 297 -4c19 0 38 1 57 2c-52 152 -113 307 -184 452zM0 -128l2 79c94 29 196 9 238 117l237 616l280 724h128c4 -7 8 -14 11 -21l205 -480c75 -177 144 -356 220 -532c45 -104 80 -211 130 -313c7 -16 21 -46 35 -57
c33 -26 125 -32 172 -50c3 -19 6 -38 6 -57c0 -9 -1 -17 -1 -26c-127 0 -254 16 -381 16c-131 0 -262 -11 -393 -15c0 26 1 52 4 78l131 28c27 6 80 13 80 50c0 36 -129 333 -145 374l-450 2c-26 -58 -127 -320 -127 -358c0 -77 147 -80 204 -88c1 -19 1 -38 1 -58
c0 -9 -1 -18 -2 -27c-116 0 -233 20 -349 20c-14 0 -34 -6 -48 -8c-63 -11 -125 -14 -188 -14z" />
    <glyph glyph-name="pinterest" unicode="&#xf0d2;" 
d="M1536 640c0 -424 -344 -768 -768 -768c-76 0 -148 11 -218 32c29 46 62 105 78 164c0 0 9 34 54 211c26 -51 104 -96 187 -96c247 0 415 225 415 527c0 227 -193 440 -487 440c-364 0 -548 -262 -548 -480c0 -132 50 -250 157 -294c17 -7 33 0 38 20c4 13 12 47 16 61
c5 20 3 26 -11 43c-31 37 -51 84 -51 151c0 194 145 368 378 368c206 0 320 -126 320 -295c0 -221 -98 -408 -244 -408c-80 0 -140 66 -121 148c23 97 68 202 68 272c0 63 -34 116 -104 116c-82 0 -148 -85 -148 -199c0 0 0 -73 25 -122c-84 -356 -99 -418 -99 -418
c-14 -58 -15 -123 -13 -177c-271 119 -460 389 -460 704c0 424 344 768 768 768s768 -344 768 -768z" />
    <glyph glyph-name="cart-plus" unicode="&#xf217;" horiz-adv-x="1664" 
d="M1216 832c0 35 -29 64 -64 64h-128v128c0 35 -29 64 -64 64s-64 -29 -64 -64v-128h-128c-35 0 -64 -29 -64 -64s29 -64 64 -64h128v-128c0 -35 29 -64 64 -64s64 29 64 64v128h128c35 0 64 29 64 64zM640 0c0 -71 -57 -128 -128 -128s-128 57 -128 128s57 128 128 128
s128 -57 128 -128zM1536 0c0 -71 -57 -128 -128 -128s-128 57 -128 128s57 128 128 128s128 -57 128 -128zM1664 1088v-512c0 -32 -24 -60 -57 -64l-1044 -122c4 -22 13 -47 13 -70s-14 -44 -24 -64h920c35 0 64 -29 64 -64s-29 -64 -64 -64h-1024c-35 0 -64 29 -64 64
c0 31 47 108 61 137l-177 823h-204c-35 0 -64 29 -64 64s29 64 64 64h256c68 0 69 -80 79 -128h1201c35 0 64 -29 64 -64z" />
    <glyph glyph-name="folder-open-o" unicode="&#xf115;" horiz-adv-x="1909" 
d="M1781 605c0 28 -31 35 -53 35h-1088c-53 0 -123 -33 -157 -74l-294 -363c-9 -12 -18 -25 -18 -40c0 -28 31 -35 53 -35h1088c53 0 123 33 157 75l294 363c9 11 18 24 18 39zM640 768h768v160c0 53 -43 96 -96 96h-576c-53 0 -96 43 -96 96v64c0 53 -43 96 -96 96h-320
c-53 0 -96 -43 -96 -96v-853l256 315c58 71 165 122 256 122zM1909 605c0 -44 -19 -86 -46 -120l-295 -363c-57 -70 -166 -122 -256 -122h-1088c-123 0 -224 101 -224 224v960c0 123 101 224 224 224h320c123 0 224 -101 224 -224v-32h544c123 0 224 -101 224 -224v-160h192
c68 0 136 -31 166 -95c10 -21 15 -44 15 -68z" />
    <glyph glyph-name="tachometer" unicode="&#xf0e4;" horiz-adv-x="1792" 
d="M384 384c0 71 -57 128 -128 128s-128 -57 -128 -128s57 -128 128 -128s128 57 128 128zM576 832c0 71 -57 128 -128 128s-128 -57 -128 -128s57 -128 128 -128s128 57 128 128zM1004 351l101 382c8 34 -12 69 -46 78s-69 -12 -78 -46l-101 -382
c-79 -6 -148 -61 -170 -142c-27 -103 35 -208 137 -235c103 -27 208 35 235 137c21 81 -13 163 -78 208zM1664 384c0 71 -57 128 -128 128s-128 -57 -128 -128s57 -128 128 -128s128 57 128 128zM1024 1024c0 71 -57 128 -128 128s-128 -57 -128 -128s57 -128 128 -128
s128 57 128 128zM1472 832c0 71 -57 128 -128 128s-128 -57 -128 -128s57 -128 128 -128s128 57 128 128zM1792 384c0 -172 -49 -338 -141 -483c-12 -18 -32 -29 -54 -29h-1402c-22 0 -42 11 -54 29c-92 144 -141 311 -141 483c0 494 402 896 896 896s896 -402 896 -896z
" />
    <glyph glyph-name="creative-commons" unicode="&#xf25e;" horiz-adv-x="1792" 
d="M605 303c-200 0 -344 142 -344 337c0 192 147 337 344 337c159 0 240 -92 243 -96c9 -11 10 -27 2 -39l-53 -78c-5 -8 -14 -13 -24 -14s-19 3 -26 10c0 0 -55 56 -138 56c-99 0 -170 -73 -170 -175c0 -103 73 -177 174 -177c92 0 155 67 156 67c7 8 17 12 27 11
c10 -2 20 -8 24 -17l45 -82c7 -11 5 -26 -3 -36c-4 -4 -93 -104 -257 -104zM1235 303c-200 0 -344 142 -344 337c0 192 148 337 344 337c159 0 240 -92 243 -96c9 -11 10 -27 2 -39l-53 -78c-5 -8 -14 -13 -24 -14s-19 3 -26 10c0 0 -54 56 -138 56
c-99 0 -170 -73 -170 -175c0 -103 73 -177 174 -177c92 0 155 67 156 67c7 8 17 12 27 11c11 -2 20 -8 25 -17l45 -82c6 -11 4 -26 -4 -36c-4 -4 -92 -104 -257 -104zM896 1376c-406 0 -736 -330 -736 -736s330 -736 736 -736s736 330 736 736s-330 736 -736 736zM896 1536
c495 0 896 -401 896 -896s-401 -896 -896 -896s-896 401 -896 896s401 896 896 896z" />
    <glyph glyph-name="clipboard" unicode="&#xf0ea;" horiz-adv-x="1792" 
d="M768 -128h896v640h-416c-53 0 -96 43 -96 96v416h-384v-1152zM1024 1312v64c0 17 -15 32 -32 32h-704c-17 0 -32 -15 -32 -32v-64c0 -17 15 -32 32 -32h704c17 0 32 15 32 32zM1280 640h299l-299 299v-299zM1792 512v-672c0 -53 -43 -96 -96 -96h-960
c-53 0 -96 43 -96 96v160h-544c-53 0 -96 43 -96 96v1344c0 53 43 96 96 96h1088c53 0 96 -43 96 -96v-328c13 -8 25 -17 36 -28l408 -408c38 -38 68 -111 68 -164z" />
    <glyph glyph-name="eercast" unicode="&#xf2da;" horiz-adv-x="1719" 
d="M1304 752c35 54 -6 191 -128 272c-121 81 -276 75 -312 21c-35 -53 40 -19 177 -70c226 -84 228 -277 263 -223zM1667 178c-283 -696 -1558 -520 -1531 383c3 115 35 192 68 302c-211 -864 966 -1367 1449 -685c18 25 23 23 14 0zM1428 627c0 -283 -228 -513 -509 -513
s-509 230 -509 513s228 513 509 513s509 -230 509 -513zM1715 915c-356 808 -1826 510 -1663 -589c-338 1101 1055 1606 1570 822c42 -64 90 -176 93 -233zM1653 573c17 338 -217 569 -533 656c-5 0 -27 9 14 13c772 -26 800 -1260 -41 -1274c274 76 543 266 560 605z" />
    <glyph glyph-name="bar-chart" unicode="&#xf080;" horiz-adv-x="2048" 
d="M640 640v-512h-256v512h256zM1024 1152v-1024h-256v1024h256zM2048 0v-128h-2048v1536h128v-1408h1920zM1408 896v-768h-256v768h256zM1792 1280v-1152h-256v1152h256z" />
    <glyph glyph-name="reply" unicode="&#xf112;" horiz-adv-x="1792" 
d="M1792 416c0 -140 -70 -323 -127 -451c-11 -23 -22 -55 -37 -76c-7 -10 -14 -17 -28 -17c-20 0 -32 16 -32 35c0 16 4 34 5 50c3 41 5 82 5 123c0 477 -283 560 -714 560h-224v-256c0 -35 -29 -64 -64 -64c-17 0 -33 7 -45 19l-512 512c-12 12 -19 28 -19 45s7 33 19 45
l512 512c12 12 28 19 45 19c35 0 64 -29 64 -64v-256h224c328 0 736 -58 875 -403c42 -106 53 -221 53 -333z" />
    <glyph glyph-name="hourglass-half" unicode="&#xf252;" 
d="M1408 1408c0 -370 -177 -638 -373 -768c196 -130 373 -398 373 -768h96c18 0 32 -14 32 -32v-64c0 -18 -14 -32 -32 -32h-1472c-18 0 -32 14 -32 32v64c0 18 14 32 32 32h96c0 370 177 638 373 768c-196 130 -373 398 -373 768h-96c-18 0 -32 14 -32 32v64
c0 18 14 32 32 32h1472c18 0 32 -14 32 -32v-64c0 -18 -14 -32 -32 -32h-96zM1280 1408h-1024c0 -146 33 -275 85 -384h854c52 109 85 238 85 384zM1223 192c-74 193 -207 330 -340 384h-230c-133 -54 -266 -191 -340 -384h910z" />
    <glyph glyph-name="microchip" unicode="&#xf2db;" 
d="M192 256v-128h-112c-9 0 -16 7 -16 16v16h-48c-9 0 -16 7 -16 16v32c0 9 7 16 16 16h48v16c0 9 7 16 16 16h112zM192 512v-128h-112c-9 0 -16 7 -16 16v16h-48c-9 0 -16 7 -16 16v32c0 9 7 16 16 16h48v16c0 9 7 16 16 16h112zM192 768v-128h-112c-9 0 -16 7 -16 16v16
h-48c-9 0 -16 7 -16 16v32c0 9 7 16 16 16h48v16c0 9 7 16 16 16h112zM192 1024v-128h-112c-9 0 -16 7 -16 16v16h-48c-9 0 -16 7 -16 16v32c0 9 7 16 16 16h48v16c0 9 7 16 16 16h112zM192 1280v-128h-112c-9 0 -16 7 -16 16v16h-48c-9 0 -16 7 -16 16v32c0 9 7 16 16 16
h48v16c0 9 7 16 16 16h112zM1280 1440v-1472c0 -53 -43 -96 -96 -96h-832c-53 0 -96 43 -96 96v1472c0 53 43 96 96 96h832c53 0 96 -43 96 -96zM1536 208v-32c0 -9 -7 -16 -16 -16h-48v-16c0 -9 -7 -16 -16 -16h-112v128h112c9 0 16 -7 16 -16v-16h48c9 0 16 -7 16 -16z
M1536 464v-32c0 -9 -7 -16 -16 -16h-48v-16c0 -9 -7 -16 -16 -16h-112v128h112c9 0 16 -7 16 -16v-16h48c9 0 16 -7 16 -16zM1536 720v-32c0 -9 -7 -16 -16 -16h-48v-16c0 -9 -7 -16 -16 -16h-112v128h112c9 0 16 -7 16 -16v-16h48c9 0 16 -7 16 -16zM1536 976v-32
c0 -9 -7 -16 -16 -16h-48v-16c0 -9 -7 -16 -16 -16h-112v128h112c9 0 16 -7 16 -16v-16h48c9 0 16 -7 16 -16zM1536 1232v-32c0 -9 -7 -16 -16 -16h-48v-16c0 -9 -7 -16 -16 -16h-112v128h112c9 0 16 -7 16 -16v-16h48c9 0 16 -7 16 -16z" />
    <glyph glyph-name="graduation-cap" unicode="&#xf19d;" horiz-adv-x="2304" 
d="M1774 700l18 -316c8 -141 -287 -256 -640 -256s-648 115 -640 256l18 316l574 -181c16 -5 32 -7 48 -7s32 2 48 7zM2304 1024c0 -14 -9 -26 -22 -31l-1120 -352c-4 -1 -7 -1 -10 -1s-6 0 -10 1l-652 206c-57 -45 -97 -155 -105 -290c38 -22 63 -62 63 -109
c0 -45 -23 -84 -58 -107l58 -433c1 -9 -2 -18 -8 -25s-15 -11 -24 -11h-192c-9 0 -18 4 -24 11s-9 16 -8 25l58 433c-35 23 -58 62 -58 107c0 48 27 89 65 111c6 117 36 243 98 330l-333 104c-13 5 -22 17 -22 31s9 26 22 31l1120 352c4 1 7 1 10 1s6 0 10 -1l1120 -352
c13 -5 22 -17 22 -31z" />
    <glyph glyph-name="info-circle" unicode="&#xf05a;" 
d="M1024 160v160c0 18 -14 32 -32 32h-96v512c0 18 -14 32 -32 32h-320c-18 0 -32 -14 -32 -32v-160c0 -18 14 -32 32 -32h96v-320h-96c-18 0 -32 -14 -32 -32v-160c0 -18 14 -32 32 -32h448c18 0 32 14 32 32zM896 1056v160c0 18 -14 32 -32 32h-192c-18 0 -32 -14 -32 -32
v-160c0 -18 14 -32 32 -32h192c18 0 32 14 32 32zM1536 640c0 -424 -344 -768 -768 -768s-768 344 -768 768s344 768 768 768s768 -344 768 -768z" />
    <glyph glyph-name="barcode" unicode="&#xf02a;" horiz-adv-x="1792" 
d="M63 0h-63v1408h63v-1408zM126 1h-32v1407h32v-1407zM220 1h-31v1407h31v-1407zM377 1h-31v1407h31v-1407zM534 1h-62v1407h62v-1407zM660 1h-31v1407h31v-1407zM723 1h-31v1407h31v-1407zM786 1h-31v1407h31v-1407zM943 1h-63v1407h63v-1407zM1100 1h-63v1407h63v-1407z
M1226 1h-63v1407h63v-1407zM1352 1h-63v1407h63v-1407zM1446 1h-63v1407h63v-1407zM1635 1h-94v1407h94v-1407zM1698 1h-32v1407h32v-1407zM1792 0h-63v1408h63v-1408z" />
    <glyph glyph-name="exchange" unicode="&#xf0ec;" horiz-adv-x="1792" 
d="M1792 352v-192c0 -17 -15 -32 -32 -32h-1376v-192c0 -17 -14 -32 -32 -32c-9 0 -17 4 -24 10l-319 320c-6 6 -9 14 -9 22c0 9 3 17 9 23l320 320c6 6 15 9 23 9c17 0 32 -14 32 -32v-192h1376c17 0 32 -14 32 -32zM1792 896c0 -8 -3 -17 -9 -23l-320 -320
c-6 -6 -15 -9 -23 -9c-17 0 -32 15 -32 32v192h-1376c-17 0 -32 15 -32 32v192c0 17 15 32 32 32h1376v192c0 18 14 32 32 32c9 0 17 -4 24 -10l319 -319c6 -6 9 -15 9 -23z" />
    <glyph glyph-name="hand-o-up" unicode="&#xf0a6;" 
d="M1280 -64c0 35 -29 64 -64 64s-64 -29 -64 -64s29 -64 64 -64s64 29 64 64zM1408 700c0 113 -46 189 -167 189c-19 0 -38 -2 -56 -5c-23 42 -80 65 -126 65c-24 0 -48 -6 -69 -18c-32 34 -72 53 -119 53c-32 0 -79 -14 -103 -35v331c0 69 -59 128 -128 128
c-68 0 -128 -61 -128 -128v-576c-63 0 -128 96 -256 96c-96 0 -128 -75 -128 -160c0 -28 116 -79 139 -90c22 -12 44 -24 65 -37c53 -33 99 -71 145 -112c73 -64 163 -135 163 -241v-32h640v32c0 175 128 346 128 540zM1536 705c0 -112 -31 -218 -69 -322
c-22 -61 -59 -160 -59 -223v-288c0 -71 -57 -128 -128 -128h-640c-71 0 -128 57 -128 128v288c0 48 -86 116 -119 145c-41 36 -82 70 -129 100c-93 58 -264 101 -264 235c0 159 87 288 256 288c44 0 87 -7 128 -22v374c0 138 117 256 255 256c140 0 257 -116 257 -256v-169
c42 -3 82 -16 119 -37c14 2 29 3 43 3c64 0 128 -21 178 -60c189 2 300 -127 300 -312z" />
    <glyph glyph-name="pause" unicode="&#xf04c;" 
d="M1536 1344v-1408c0 -35 -29 -64 -64 -64h-512c-35 0 -64 29 -64 64v1408c0 35 29 64 64 64h512c35 0 64 -29 64 -64zM640 1344v-1408c0 -35 -29 -64 -64 -64h-512c-35 0 -64 29 -64 64v1408c0 35 29 64 64 64h512c35 0 64 -29 64 -64z" />
    <glyph glyph-name="github-square" unicode="&#xf092;" 
d="M519 336c2 3 1 9 -3 13c-5 4 -11 5 -14 2c-2 -3 -1 -9 3 -13c5 -4 11 -5 14 -2zM491 377c-3 4 -8 6 -12 4c-3 -2 -3 -8 0 -12c4 -5 9 -7 12 -5s3 8 0 13zM450 417c1 2 -1 6 -5 8c-3 1 -7 1 -8 -2c-2 -3 0 -6 4 -8c4 -1 8 -1 9 2zM471 394c2 2 2 7 -2 10c-3 4 -8 5 -10 3
c-3 -3 -2 -7 1 -11c3 -3 8 -5 11 -2zM557 319c1 4 -3 9 -9 11s-11 0 -13 -4c-1 -4 3 -9 9 -11s11 0 13 4zM599 316c0 4 -5 8 -12 8c-6 0 -10 -4 -10 -8s5 -8 11 -8s11 4 11 8zM638 323c-1 4 -7 6 -13 5s-10 -5 -9 -9s6 -7 12 -6s10 6 10 10zM1280 640
c0 283 -229 512 -512 512s-512 -229 -512 -512c0 -226 147 -418 350 -486c26 -5 35 11 35 25c0 12 0 52 -1 95c0 0 -142 -31 -172 61c0 0 -23 59 -57 74c0 0 -46 32 4 32c0 0 50 -4 78 -53c45 -79 120 -56 149 -43c5 33 18 56 33 69c-114 13 -234 57 -234 253
c0 56 20 101 53 137c-5 13 -23 65 5 136c43 13 141 -53 141 -53c41 12 84 17 128 17s87 -5 128 -17c0 0 98 66 141 53c28 -71 10 -123 5 -136c33 -36 53 -81 53 -137c0 -197 -120 -240 -234 -253c18 -16 35 -47 35 -95c0 -68 -1 -123 -1 -140c0 -14 9 -30 35 -25
c203 68 350 260 350 486zM1536 1120v-960c0 -159 -129 -288 -288 -288h-960c-159 0 -288 129 -288 288v960c0 159 129 288 288 288h960c159 0 288 -129 288 -288z" />
    <glyph glyph-name="search" unicode="&#xf002;" horiz-adv-x="1664" 
d="M1152 704c0 247 -201 448 -448 448s-448 -201 -448 -448s201 -448 448 -448s448 201 448 448zM1664 -128c0 -70 -58 -128 -128 -128c-34 0 -67 14 -90 38l-343 342c-117 -81 -257 -124 -399 -124c-389 0 -704 315 -704 704s315 704 704 704s704 -315 704 -704
c0 -142 -43 -282 -124 -399l343 -343c23 -23 37 -56 37 -90z" />
    <glyph glyph-name="mixcloud" unicode="&#xf289;" horiz-adv-x="2304" 
d="M1645 438c0 80 -51 148 -121 175c-5 -31 -13 -62 -23 -92c-10 -32 -40 -52 -72 -52c-8 0 -16 1 -24 3c-41 14 -62 57 -49 97c15 46 23 94 23 143c0 250 -204 454 -455 454c-180 0 -342 -107 -414 -267c70 -18 135 -54 188 -106c30 -30 30 -79 0 -109s-79 -30 -109 0
c-48 48 -112 75 -180 75c-141 0 -256 -114 -256 -255s115 -255 256 -255h1046c105 0 190 85 190 189zM1798 438c0 -189 -154 -342 -343 -342h-1046c-226 0 -409 183 -409 408c0 205 152 374 349 403c83 244 314 412 575 412c315 0 575 -241 605 -548
c153 -33 269 -170 269 -333zM2048 438c0 -114 -33 -224 -97 -319c-15 -22 -39 -33 -64 -33c-15 0 -30 4 -43 13c-35 23 -44 71 -20 106c47 69 71 149 71 233c0 83 -24 164 -71 233c-24 35 -15 82 20 106s83 14 107 -21c64 -94 97 -204 97 -318zM2304 438
c0 -159 -46 -312 -134 -443c-15 -22 -39 -34 -64 -34c-14 0 -29 4 -42 13c-35 24 -45 71 -21 106c70 106 108 230 108 358s-38 252 -108 357c-24 35 -14 83 21 106c35 24 82 15 106 -21c88 -130 134 -283 134 -442z" />
    <glyph glyph-name="snowflake-o" unicode="&#xf2dc;" horiz-adv-x="1570" 
d="M1519 419l-167 -33l186 -107c30 -17 41 -57 23 -87s-57 -41 -87 -23l-186 106l55 -160c28 -80 -94 -121 -121 -42l-102 300l-271 156v-313l208 -238c56 -63 -41 -148 -96 -84l-112 128v-214c0 -35 -29 -64 -64 -64s-64 29 -64 64v214l-112 -128c-55 -64 -152 21 -96 84
l208 238v313l-271 -156l-102 -300c-27 -79 -149 -38 -121 42l55 160l-186 -106c-30 -18 -69 -7 -87 23s-7 70 23 87l186 107l-167 33c-83 17 -58 142 25 126l310 -62l271 157l-271 157l-310 -62c-4 -1 -9 -1 -13 -1c-76 0 -87 112 -12 127l167 33l-186 107
c-30 17 -41 57 -23 87c18 31 57 41 87 23l186 -106l-55 160c-28 80 94 121 121 42l102 -300l271 -156v313l-208 238c-56 63 41 148 96 84l112 -128v214c0 35 29 64 64 64s64 -29 64 -64v-214l112 128c55 64 152 -21 96 -84l-208 -238v-313l271 156l102 300
c27 79 149 38 121 -42l-55 -160l186 106c30 18 69 7 87 -23s7 -70 -23 -87l-186 -107l167 -33c75 -15 64 -127 -12 -127c-4 0 -9 0 -13 1l-310 62l-271 -157l271 -157l310 62c83 16 108 -109 25 -126z" />
    <glyph glyph-name="flask" unicode="&#xf0c3;" horiz-adv-x="1458" 
d="M1424 88c75 -119 22 -216 -119 -216h-1152c-141 0 -194 97 -119 216l503 793v399h-64c-35 0 -64 29 -64 64s29 64 64 64h512c35 0 64 -29 64 -64s-29 -64 -64 -64h-64v-399zM645 813l-272 -429h712l-272 429l-20 31v436h-128v-436z" />
    <glyph glyph-name="pinterest-square" unicode="&#xf0d3;" 
d="M1248 1408c159 0 288 -129 288 -288v-960c0 -159 -129 -288 -288 -288h-725c33 47 87 128 108 210c0 0 9 34 53 209c27 -51 104 -95 186 -95c244 0 410 223 410 521c0 225 -191 435 -481 435c-361 0 -543 -259 -543 -475c0 -130 50 -246 156 -290c17 -7 33 0 38 19
c3 13 11 47 15 61c5 19 3 26 -11 42c-30 37 -50 83 -50 150c0 192 144 363 374 363c204 0 316 -124 316 -291c0 -219 -97 -404 -241 -404c-79 0 -139 66 -120 147c23 96 67 200 67 269c0 62 -33 114 -102 114c-81 0 -146 -84 -146 -196c0 0 0 -72 24 -121
c-83 -352 -98 -414 -98 -414c-22 -92 -13 -199 -7 -254h-183c-159 0 -288 129 -288 288v960c0 159 129 288 288 288h960z" />
    <glyph glyph-name="fast-backward" unicode="&#xf049;" horiz-adv-x="1792" 
d="M1747 1395c25 25 45 16 45 -19v-1472c0 -35 -20 -44 -45 -19l-710 710c-6 6 -10 12 -13 19v-710c0 -35 -20 -44 -45 -19l-710 710c-6 6 -10 12 -13 19v-678c0 -35 -29 -64 -64 -64h-128c-35 0 -64 29 -64 64v1408c0 35 29 64 64 64h128c35 0 64 -29 64 -64v-678
c3 7 7 13 13 19l710 710c25 25 45 16 45 -19v-710c3 7 7 13 13 19z" />
    <glyph glyph-name="volume-control-phone" unicode="&#xf2a0;" horiz-adv-x="1408" 
d="M617 -153c0 -34 -90 -84 -119 -95c-15 -6 -30 -8 -45 -8c-33 0 -66 9 -98 18c-164 49 -203 149 -268 290c-70 151 -87 295 -87 460s17 309 87 460c65 141 104 241 268 290c32 9 65 18 98 18c15 0 30 -2 45 -8c29 -11 119 -61 119 -95c0 -24 -53 -194 -64 -234
c-6 -25 -8 -66 -27 -84c-13 -12 -34 -14 -51 -14c-47 0 -94 11 -141 11c-14 0 -35 -1 -47 -11c-16 -13 -24 -58 -30 -78c-24 -83 -37 -168 -37 -255s13 -172 37 -255c6 -20 14 -65 30 -78c12 -10 33 -11 47 -11c47 0 94 11 141 11c17 0 38 -2 51 -14c19 -18 21 -59 27 -84
c11 -40 64 -210 64 -234zM776 760c-17 0 -33 7 -45 19c-25 25 -26 66 0 91c24 24 37 56 37 90s-13 66 -37 91c-26 25 -25 65 0 90s65 25 90 0c48 -48 75 -113 75 -181s-27 -133 -75 -181c-13 -12 -29 -19 -45 -19zM957 579c-17 0 -33 6 -45 19c-25 25 -25 65 0 90
c72 73 112 169 112 272s-40 199 -112 272c-25 25 -25 65 0 90s65 25 90 0c97 -97 150 -225 150 -362s-53 -265 -150 -362c-12 -13 -29 -19 -45 -19zM1138 398c-17 0 -33 6 -45 19c-25 25 -25 65 0 90c120 121 187 282 187 453s-67 332 -187 453c-25 25 -25 65 0 90
s65 25 90 0c145 -145 225 -338 225 -543s-80 -398 -225 -543c-12 -13 -29 -19 -45 -19z" />
    <glyph glyph-name="code-fork" unicode="&#xf126;" horiz-adv-x="1024" 
d="M288 64c0 53 -43 96 -96 96s-96 -43 -96 -96s43 -96 96 -96s96 43 96 96zM288 1216c0 53 -43 96 -96 96s-96 -43 -96 -96s43 -96 96 -96s96 43 96 96zM928 1088c0 53 -43 96 -96 96s-96 -43 -96 -96s43 -96 96 -96s96 43 96 96zM1024 1088c0 -71 -39 -133 -96 -166
c-3 -361 -259 -441 -429 -495c-159 -50 -211 -74 -211 -171v-26c57 -33 96 -95 96 -166c0 -106 -86 -192 -192 -192s-192 86 -192 192c0 71 39 133 96 166v820c-57 33 -96 95 -96 166c0 106 86 192 192 192s192 -86 192 -192c0 -71 -39 -133 -96 -166v-497
c51 25 105 42 154 57c186 59 292 103 294 312c-57 33 -96 95 -96 166c0 106 86 192 192 192s192 -86 192 -192z" />
    <glyph glyph-name="tasks" unicode="&#xf0ae;" horiz-adv-x="1792" 
d="M1024 128h640v128h-640v-128zM640 640h1024v128h-1024v-128zM1280 1152h384v128h-384v-128zM1792 320v-256c0 -35 -29 -64 -64 -64h-1664c-35 0 -64 29 -64 64v256c0 35 29 64 64 64h1664c35 0 64 -29 64 -64zM1792 832v-256c0 -35 -29 -64 -64 -64h-1664
c-35 0 -64 29 -64 64v256c0 35 29 64 64 64h1664c35 0 64 -29 64 -64zM1792 1344v-256c0 -35 -29 -64 -64 -64h-1664c-35 0 -64 29 -64 64v256c0 35 29 64 64 64h1664c35 0 64 -29 64 -64z" />
    <glyph glyph-name="firefox" unicode="&#xf269;" horiz-adv-x="1792" 
d="M903 -256c-386 0 -693 226 -834 549c-158 359 -32 934 249 1188l-11 -281c14 18 121 23 138 0c58 111 245 194 395 197c-57 -48 -189 -223 -178 -312c73 -23 185 -24 244 -28c18 -10 15 -71 -21 -121c0 0 -47 -65 -174 -88l15 -189l-139 67c-45 -114 63 -215 175 -196
c124 21 168 102 255 97c86 -5 120 -53 109 -98c0 0 -14 -54 -107 -45c-79 -125 -184 -180 -354 -165c258 -214 606 -20 694 155c88 174 11 433 -77 506c104 -45 176 -91 214 -192c20 224 -83 478 -267 627c346 -101 557 -369 563 -797s-379 -874 -889 -874z" />
    <glyph glyph-name="apple" unicode="&#xf179;" horiz-adv-x="1393" 
d="M1393 321c-25 -79 -65 -163 -123 -250c-86 -131 -172 -196 -257 -196c-34 0 -80 11 -140 32c-59 22 -110 32 -151 32c-40 0 -88 -11 -142 -33c-55 -23 -99 -34 -132 -34c-103 0 -202 87 -301 259c-97 172 -147 339 -147 503c0 153 38 277 113 374c75 96 169 144 284 144
c49 0 107 -10 177 -30c69 -20 115 -30 138 -30c29 0 77 11 143 34c66 22 124 34 173 34c80 0 151 -22 213 -65c35 -24 70 -58 104 -100c-52 -44 -90 -83 -114 -118c-43 -62 -65 -131 -65 -207c0 -82 23 -157 69 -223s99 -108 158 -126zM1017 1494c0 -41 -10 -87 -29 -136
c-20 -50 -51 -96 -93 -138c-36 -36 -72 -60 -108 -72c-23 -7 -57 -13 -104 -17c2 99 28 185 78 257s134 121 250 148c2 -9 4 -16 5 -22c0 -7 1 -13 1 -20z" />
    <glyph glyph-name="gamepad" unicode="&#xf11b;" horiz-adv-x="1920" 
d="M832 448v128c0 18 -14 32 -32 32h-192v192c0 18 -14 32 -32 32h-128c-18 0 -32 -14 -32 -32v-192h-192c-18 0 -32 -14 -32 -32v-128c0 -18 14 -32 32 -32h192v-192c0 -18 14 -32 32 -32h128c18 0 32 14 32 32v192h192c18 0 32 14 32 32zM1408 384c0 71 -57 128 -128 128
s-128 -57 -128 -128s57 -128 128 -128s128 57 128 128zM1664 640c0 71 -57 128 -128 128s-128 -57 -128 -128s57 -128 128 -128s128 57 128 128zM1920 512c0 -283 -229 -512 -512 -512c-130 0 -248 49 -338 128h-220c-90 -79 -208 -128 -338 -128c-283 0 -512 229 -512 512
s229 512 512 512h896c283 0 512 -229 512 -512z" />
    <glyph glyph-name="cc-stripe" unicode="&#xf1f5;" horiz-adv-x="2304" 
d="M1597 633c0 -46 -7 -81 -21 -106c-12 -22 -31 -35 -52 -35c-15 0 -29 3 -41 9v224c26 27 49 30 57 30c38 0 57 -42 57 -122zM2035 669h-110c4 67 22 98 56 98s52 -32 54 -98zM476 534c0 84 -51 119 -134 149c-44 16 -68 29 -68 49c0 17 14 26 38 26c46 0 92 -17 124 -33
l18 112c-25 12 -77 32 -149 32c-51 0 -93 -13 -123 -38c-32 -26 -48 -64 -48 -109c0 -82 50 -118 132 -147c52 -19 70 -32 70 -53c0 -20 -17 -31 -48 -31c-38 0 -101 19 -142 43l-18 -113c35 -20 100 -41 168 -41c54 0 98 13 129 37c34 27 51 66 51 117zM771 749l19 111h-96
v135l-129 -21l-18 -114l-46 -8l-17 -103h62v-219c0 -57 15 -96 44 -120c25 -20 61 -30 111 -30c39 0 62 7 79 11v118c-9 -2 -30 -7 -44 -7c-29 0 -42 16 -42 50v197h77zM1087 724v139c-10 2 -19 3 -28 3c-42 0 -76 -22 -89 -62l-10 56h-131v-471h150v306c19 23 46 31 82 31
c8 0 16 0 26 -2zM1124 389h150v471h-150v-471zM1746 638c0 80 -15 141 -45 179c-27 35 -64 52 -111 52c-43 0 -81 -18 -117 -56l-8 47h-132v-645l150 25v151c23 -7 47 -11 68 -11c37 0 92 10 134 56c41 44 61 112 61 202zM1278 986c0 44 -35 79 -79 79s-79 -35 -79 -79
s35 -80 79 -80s79 36 79 80zM2176 629c0 75 -16 134 -48 176c-33 42 -82 64 -144 64c-128 0 -207 -94 -207 -246c0 -84 21 -148 63 -188c37 -37 91 -55 161 -55c64 0 123 15 160 40l-16 103c-37 -20 -80 -31 -128 -31c-29 0 -49 6 -63 19c-16 13 -25 35 -28 66h248
c1 7 2 41 2 52zM2304 1280v-1280c0 -70 -58 -128 -128 -128h-2048c-70 0 -128 58 -128 128v1280c0 70 58 128 128 128h2048c70 0 128 -58 128 -128z" />
    <glyph glyph-name="quote-left" unicode="&#xf10d;" horiz-adv-x="1664" 
d="M768 576v-384c0 -106 -86 -192 -192 -192h-384c-106 0 -192 86 -192 192v704c0 282 230 512 512 512h64c35 0 64 -29 64 -64v-128c0 -35 -29 -64 -64 -64h-64c-141 0 -256 -115 -256 -256v-32c0 -53 43 -96 96 -96h224c106 0 192 -86 192 -192zM1664 576v-384
c0 -106 -86 -192 -192 -192h-384c-106 0 -192 86 -192 192v704c0 282 230 512 512 512h64c35 0 64 -29 64 -64v-128c0 -35 -29 -64 -64 -64h-64c-141 0 -256 -115 -256 -256v-32c0 -53 43 -96 96 -96h224c106 0 192 -86 192 -192z" />
    <glyph glyph-name="user-times" unicode="&#xf235;" horiz-adv-x="2039" 
d="M704 640c-212 0 -384 172 -384 384s172 384 384 384s384 -172 384 -384s-172 -384 -384 -384zM1781 320l249 -249c6 -6 9 -14 9 -23c0 -8 -3 -16 -9 -22l-136 -136c-6 -6 -14 -9 -22 -9c-9 0 -17 3 -23 9l-249 249l-249 -249c-6 -6 -14 -9 -23 -9c-8 0 -16 3 -22 9
l-136 136c-6 6 -9 14 -9 22c0 9 3 17 9 23l249 249l-249 249c-6 6 -9 14 -9 23c0 8 3 16 9 22l136 136c6 6 14 9 22 9c9 0 17 -3 23 -9l249 -249l249 249c6 6 14 9 23 9c8 0 16 -3 22 -9l136 -136c6 -6 9 -14 9 -22c0 -9 -3 -17 -9 -23zM1283 320l-181 -181
c-24 -24 -37 -57 -37 -91c0 -33 13 -66 37 -90l83 -83c-14 -2 -29 -3 -44 -3h-874c-160 0 -267 96 -267 259c0 226 53 573 346 573c16 0 27 -7 39 -17c96 -76 194 -122 319 -122s223 46 319 122c12 10 23 17 39 17c19 0 38 -2 57 -6c-33 -32 -54 -58 -54 -106
c0 -34 13 -67 37 -91z" />
    <glyph glyph-name="plus-square-o" unicode="&#xf196;" horiz-adv-x="1408" 
d="M1152 736v-64c0 -18 -14 -32 -32 -32h-352v-352c0 -18 -14 -32 -32 -32h-64c-18 0 -32 14 -32 32v352h-352c-18 0 -32 14 -32 32v64c0 18 14 32 32 32h352v352c0 18 14 32 32 32h64c18 0 32 -14 32 -32v-352h352c18 0 32 -14 32 -32zM1280 288v832c0 88 -72 160 -160 160
h-832c-88 0 -160 -72 -160 -160v-832c0 -88 72 -160 160 -160h832c88 0 160 72 160 160zM1408 1120v-832c0 -159 -129 -288 -288 -288h-832c-159 0 -288 129 -288 288v832c0 159 129 288 288 288h832c159 0 288 -129 288 -288z" />
    <glyph glyph-name="eye-slash" unicode="&#xf070;" horiz-adv-x="1792" 
d="M555 201l78 141c-116 84 -185 219 -185 362c0 79 21 157 61 225c-156 -80 -286 -206 -381 -353c104 -161 251 -296 427 -375zM944 960c0 26 -22 48 -48 48c-167 0 -304 -137 -304 -304c0 -26 22 -48 48 -48s48 22 48 48c0 115 94 208 208 208c26 0 48 22 48 48z
M1307 1151c0 -2 0 -7 -1 -9c-211 -377 -420 -756 -631 -1133l-49 -89c-6 -10 -17 -16 -28 -16c-18 0 -113 58 -134 70c-10 6 -16 16 -16 28c0 16 34 70 44 87c-194 88 -357 238 -472 418c-13 20 -20 44 -20 69c0 24 7 49 20 69c198 304 507 507 876 507c60 0 121 -6 180 -17
l54 97c6 10 16 16 28 16c18 0 112 -58 133 -70c10 -6 16 -16 16 -27zM1344 704c0 -186 -115 -352 -288 -418l280 502c5 -28 8 -56 8 -84zM1792 576c0 -26 -7 -47 -20 -69c-31 -51 -70 -100 -109 -145c-196 -225 -466 -362 -767 -362l74 132c291 25 538 202 694 444
c-74 115 -169 216 -282 294l63 112c124 -83 249 -208 327 -337c13 -22 20 -43 20 -69z" />
    <glyph glyph-name="trello" unicode="&#xf181;" 
d="M704 192v1024c0 18 -14 32 -32 32h-480c-18 0 -32 -14 -32 -32v-1024c0 -18 14 -32 32 -32h480c18 0 32 14 32 32zM1376 576v640c0 18 -14 32 -32 32h-480c-18 0 -32 -14 -32 -32v-640c0 -18 14 -32 32 -32h480c18 0 32 14 32 32zM1536 1344v-1408c0 -35 -29 -64 -64 -64
h-1408c-35 0 -64 29 -64 64v1408c0 35 29 64 64 64h1408c35 0 64 -29 64 -64z" />
    <glyph glyph-name="dribbble" unicode="&#xf17d;" 
d="M1024 36c-10 58 -48 258 -140 498c-1 0 -3 -1 -4 -1c0 0 -389 -136 -515 -410c-6 5 -15 11 -15 11c114 -93 259 -150 418 -150c91 0 177 19 256 52zM839 643c-16 37 -34 74 -53 111c-338 -101 -662 -93 -673 -93c-1 -7 -1 -14 -1 -21c0 -168 64 -322 168 -438
c179 319 533 433 533 433c9 3 18 5 26 8zM732 855c-114 202 -235 366 -244 378c-183 -86 -319 -255 -362 -458c17 0 291 -3 606 80zM1416 536c-14 4 -197 62 -409 29c86 -237 121 -430 128 -469c147 99 251 257 281 440zM611 1277c-1 0 -1 0 -2 -1c0 0 1 1 2 1zM1201 1132
c-115 102 -267 164 -433 164c-53 0 -105 -7 -155 -19c10 -13 134 -176 246 -382c247 92 340 234 342 237zM1424 647c-2 155 -57 298 -149 410c-2 -2 -107 -154 -366 -260c15 -31 30 -63 44 -95c5 -11 9 -23 14 -34c226 29 449 -20 457 -21zM1536 640
c0 -424 -344 -768 -768 -768s-768 344 -768 768s344 768 768 768s768 -344 768 -768z" />
    <glyph glyph-name="user-secret" unicode="&#xf21b;" horiz-adv-x="1408" 
d="M576 0l96 448l-96 128l-128 64zM832 0l128 640l-128 -64l-96 -128zM992 1010c-1 2 -2 4 -4 6c-9 7 -81 8 -96 8c-57 0 -111 -8 -167 -19c-7 -2 -14 -2 -21 -2s-14 0 -21 2c-56 11 -110 19 -167 19c-15 0 -87 -1 -96 -8c-2 -2 -3 -4 -4 -6c1 -9 2 -18 4 -27
c6 -8 11 -5 15 -17c26 -71 38 -126 128 -126c129 0 93 119 135 119h12c42 0 6 -119 135 -119c90 0 102 55 128 126c4 12 9 9 15 17c2 9 3 18 4 27zM1408 131c0 -163 -107 -259 -267 -259h-874c-160 0 -267 96 -267 259c0 181 32 455 218 545l-90 220h214
c-14 41 -22 84 -22 128c0 11 1 22 2 32c-39 8 -194 40 -194 96c0 59 170 91 210 99c21 75 71 189 122 248c20 23 45 37 76 37c60 0 108 -62 168 -62s108 62 168 62c31 0 56 -14 76 -37c51 -59 101 -173 122 -248c40 -8 210 -40 210 -99c0 -56 -155 -88 -194 -96
c5 -54 -2 -108 -20 -160h214l-82 -225c179 -93 210 -362 210 -540z" />
    <glyph glyph-name="cloud" unicode="&#xf0c2;" horiz-adv-x="1920" 
d="M1920 384c0 -212 -172 -384 -384 -384h-1088c-247 0 -448 201 -448 448c0 179 106 334 258 405c-1 14 -2 29 -2 43c0 283 229 512 512 512c214 0 397 -131 474 -318c44 39 102 62 166 62c141 0 256 -115 256 -256c0 -51 -15 -98 -41 -138c170 -40 297 -192 297 -374z" />
    <glyph glyph-name="usd" unicode="&#xf155;" horiz-adv-x="932" 
d="M932 351c0 -204 -146 -365 -358 -400v-175c0 -18 -14 -32 -32 -32h-135c-17 0 -32 14 -32 32v175c-234 33 -362 173 -367 179c-10 12 -11 29 -2 41l103 135c5 7 14 11 23 12s18 -2 24 -9c2 -1 142 -135 319 -135c98 0 204 52 204 165c0 96 -118 143 -253 197
c-180 71 -404 161 -404 412c0 184 144 336 353 376v180c0 18 15 32 32 32h135c18 0 32 -14 32 -32v-176c203 -23 311 -133 315 -137c10 -11 12 -26 5 -38l-81 -146c-5 -9 -13 -15 -23 -16c-10 -2 -19 1 -27 7c-1 1 -122 108 -272 108c-127 0 -215 -63 -215 -154
c0 -106 122 -153 264 -208c184 -71 392 -152 392 -393z" />
    <glyph glyph-name="eye" unicode="&#xf06e;" horiz-adv-x="1792" 
d="M1664 576c-95 147 -225 273 -381 353c40 -68 61 -146 61 -225c0 -247 -201 -448 -448 -448s-448 201 -448 448c0 79 21 157 61 225c-156 -80 -286 -206 -381 -353c171 -264 447 -448 768 -448s597 184 768 448zM944 960c0 26 -22 48 -48 48c-167 0 -304 -137 -304 -304
c0 -26 22 -48 48 -48s48 22 48 48c0 114 94 208 208 208c26 0 48 22 48 48zM1792 576c0 -25 -8 -48 -20 -69c-184 -303 -521 -507 -876 -507s-692 205 -876 507c-12 21 -20 44 -20 69s8 48 20 69c184 302 521 507 876 507s692 -205 876 -507c12 -21 20 -44 20 -69z" />
    <glyph glyph-name="usb" unicode="&#xf287;" horiz-adv-x="2304" 
d="M2288 731c10 -5 16 -16 16 -27s-6 -22 -16 -27l-320 -192c-5 -3 -10 -5 -16 -5c-5 0 -11 1 -16 4c-10 6 -16 16 -16 28v128h-858c32 -50 59 -109 83 -165c48 -108 97 -219 167 -219h96v96c0 18 14 32 32 32h320c18 0 32 -14 32 -32v-320c0 -18 -14 -32 -32 -32h-320
c-18 0 -32 14 -32 32v96h-96c-153 0 -222 157 -284 295c-47 107 -96 217 -164 217h-360c-29 -110 -129 -192 -248 -192c-141 0 -256 115 -256 256s115 256 256 256c119 0 219 -82 248 -192h104c68 0 117 110 164 217c62 138 131 295 284 295h107c27 75 97 128 181 128
c106 0 192 -86 192 -192s-86 -192 -192 -192c-84 0 -154 53 -181 128h-107c-70 0 -119 -111 -167 -219c-24 -56 -51 -115 -83 -165h1114v128c0 12 6 22 16 28s23 5 32 -1z" />
    <glyph glyph-name="certificate" unicode="&#xf0a3;" 
d="M1376 640l138 -135c19 -18 26 -45 20 -70c-7 -25 -27 -45 -52 -51l-188 -48l53 -186c7 -25 0 -52 -19 -70c-18 -19 -45 -26 -70 -19l-186 53l-48 -188c-6 -25 -26 -45 -51 -52c-6 -1 -13 -2 -19 -2c-19 0 -38 8 -51 22l-135 138l-135 -138c-18 -19 -45 -26 -70 -20
c-26 7 -45 27 -51 52l-48 188l-186 -53c-25 -7 -52 0 -70 19c-19 18 -26 45 -19 70l53 186l-188 48c-25 6 -45 26 -52 51c-6 25 1 52 20 70l138 135l-138 135c-19 18 -26 45 -20 70c7 25 27 45 52 51l188 48l-53 186c-7 25 0 52 19 70c18 19 45 26 70 19l186 -53l48 188
c6 25 26 45 51 51c25 7 52 0 70 -19l135 -139l135 139c18 19 44 26 70 19c25 -6 45 -26 51 -51l48 -188l186 53c25 7 52 0 70 -19c19 -18 26 -45 19 -70l-53 -186l188 -48c25 -6 45 -26 52 -51c6 -25 -1 -52 -20 -70z" />
    <glyph glyph-name="500px" unicode="&#xf26e;" horiz-adv-x="1394" 
d="M1387 -11l-6 -6c-75 -75 -162 -134 -259 -175c-101 -42 -207 -64 -317 -64s-217 22 -317 64c-97 41 -185 100 -259 175c-75 74 -134 161 -175 258c-25 61 -45 124 -54 189c-4 28 35 34 48 36c31 5 52 3 56 -20c1 -1 1 -2 1 -4c4 -20 14 -80 46 -159
c33 -82 84 -158 152 -226c65 -65 141 -116 226 -152c87 -37 180 -56 276 -56c95 0 188 19 276 56c84 36 160 87 225 152l6 6c7 7 15 9 25 6c9 -2 20 -10 33 -22c32 -33 25 -49 17 -58zM915 604l-66 -66l63 -63c7 -7 20 -22 -7 -49c-11 -11 -22 -17 -32 -17
c-7 0 -13 3 -19 10l-62 61l-66 -66c-2 -2 -7 -5 -15 -5c-9 0 -20 5 -31 16l-2 2c-7 6 -18 17 -18 29c0 6 3 11 8 17l66 65l-66 66c-11 11 -6 25 14 45c12 12 22 18 31 18c5 0 9 -2 13 -5l65 -66l65 65c11 11 29 6 48 -13c12 -12 25 -29 11 -44zM1386 547
c0 -79 -16 -156 -46 -228c-30 -70 -72 -132 -126 -186s-117 -96 -187 -126c-72 -31 -149 -46 -228 -46s-156 15 -228 46c-70 30 -133 72 -187 126s-96 116 -125 186c-6 13 -15 38 -15 40h-1c-9 28 31 40 43 44c29 9 51 13 60 -12c24 -64 61 -126 97 -167h1v341
c2 84 37 169 102 232c67 66 157 103 253 103c196 0 355 -158 355 -352c0 -196 -160 -355 -355 -355c-39 0 -68 3 -112 16c-5 2 -28 12 -13 61c4 13 16 51 44 43c2 0 51 -12 77 -12c139 0 248 108 248 246c0 65 -26 126 -72 171c-46 46 -108 71 -175 71
c-69 0 -132 -28 -178 -80c-40 -45 -64 -105 -64 -160v-413c72 -44 155 -67 242 -67c128 0 252 51 341 140c90 90 140 211 140 338c0 128 -50 248 -141 339c-90 90 -210 140 -339 140s-250 -50 -340 -140c-1 -1 -58 -60 -77 -87l-2 -2c-12 -17 -23 -33 -73 -22
c-25 6 -52 21 -52 43v680c0 18 14 38 38 38h877c30 0 30 -42 30 -55c0 -14 0 -55 -30 -55h-811v-483h1c56 59 153 121 210 145c71 30 151 46 231 46c79 0 156 -15 228 -46c70 -30 133 -72 187 -126s96 -116 126 -186c30 -73 46 -149 46 -229zM1355 1128
c19 -17 6 -35 -13 -57c-12 -12 -25 -26 -39 -26c-6 0 -11 2 -16 7c-72 62 -137 104 -207 133c-87 38 -180 56 -276 56c-85 0 -178 -17 -262 -49c-26 -10 -40 24 -45 37c-6 16 -9 29 -8 38c2 10 7 17 16 20c82 36 194 57 299 57c109 0 216 -22 316 -64
c92 -39 167 -87 235 -152z" />
    <glyph glyph-name="liberapay-square" unicode="&#xf2e8;" horiz-adv-x="1533" 
d="M148 1404h1236c82 0 149 -66 149 -148v-1236c0 -82 -67 -148 -149 -148h-1236c-82 0 -148 66 -148 148v1236c0 82 66 148 148 148zM736 1150v0l-161 -25l-133 -553c-8 -33 -12 -64 -12 -93s6 -54 18 -76s32 -40 60 -53s68 -19 117 -19l31 128c-18 1 -32 4 -42 9
s-18 12 -22 20s-5 17 -5 27s1 23 4 35zM985 902v0c-42 0 -80 -3 -116 -10s-67 -14 -95 -22l-174 -722h155l47 189c24 -4 47 -6 71 -6c49 0 94 8 135 25s76 41 106 72s52 67 69 109s25 88 25 139c0 31 -4 61 -13 88s-22 51 -40 72c-18 20 -41 36 -69 48s-62 18 -101 18z
M965 772v0c33 0 56 -11 69 -32s20 -46 20 -76c0 -31 -4 -59 -13 -84s-21 -47 -37 -65s-34 -32 -56 -42s-47 -15 -74 -15c-17 0 -32 1 -44 4l73 303c19 4 40 7 62 7z" />
    <glyph glyph-name="camera" unicode="&#xf030;" horiz-adv-x="1920" 
d="M960 864c159 0 288 -129 288 -288s-129 -288 -288 -288s-288 129 -288 288s129 288 288 288zM1664 1280c141 0 256 -115 256 -256v-896c0 -141 -115 -256 -256 -256h-1408c-141 0 -256 115 -256 256v896c0 141 115 256 256 256h224l51 136c25 66 103 120 173 120h512
c70 0 148 -54 173 -120l51 -136h224zM960 128c247 0 448 201 448 448s-201 448 -448 448s-448 -201 -448 -448s201 -448 448 -448z" />
    <glyph glyph-name="music" unicode="&#xf001;" 
d="M1536 1312v-1120c0 -141 -211 -192 -320 -192s-320 51 -320 192s211 192 320 192c66 0 132 -12 192 -39v537l-768 -237v-709c0 -141 -211 -192 -320 -192s-320 51 -320 192s211 192 320 192c66 0 132 -12 192 -39v967c0 42 28 79 68 92l832 256c9 3 18 4 28 4
c53 0 96 -43 96 -96z" />
    <glyph glyph-name="wpexplorer" unicode="&#xf2de;" horiz-adv-x="1792" 
d="M948 508l163 -329h-51l-175 350l-171 -350h-49l179 374l-78 33l21 49l240 -102l-21 -50zM563 1100l304 -130l-130 -304l-304 130zM907 915l240 -103l-103 -239l-239 102zM1188 765l191 -81l-82 -190l-190 81zM1680 640c0 432 -352 784 -784 784s-784 -352 -784 -784
s352 -784 784 -784s784 352 784 784zM1792 640c0 -494 -402 -896 -896 -896s-896 402 -896 896s402 896 896 896s896 -402 896 -896z" />
    <glyph glyph-name="gg-circle" unicode="&#xf261;" horiz-adv-x="1792" 
d="M717 182l271 271l-279 279l-88 -88l192 -191l-96 -96l-279 279l279 279l40 -40l87 87l-127 128l-454 -454zM1075 190l454 454l-454 454l-271 -271l279 -279l88 88l-192 191l96 96l279 -279l-279 -279l-40 40l-87 -88zM1792 640c0 -495 -401 -896 -896 -896
s-896 401 -896 896s401 896 896 896s896 -401 896 -896z" />
    <glyph glyph-name="sort" unicode="&#xf0dc;" horiz-adv-x="1024" 
d="M1024 448c0 -17 -7 -33 -19 -45l-448 -448c-12 -12 -28 -19 -45 -19s-33 7 -45 19l-448 448c-12 12 -19 28 -19 45c0 35 29 64 64 64h896c35 0 64 -29 64 -64zM1024 832c0 -35 -29 -64 -64 -64h-896c-35 0 -64 29 -64 64c0 17 7 33 19 45l448 448c12 12 28 19 45 19
s33 -7 45 -19l448 -448c12 -12 19 -28 19 -45z" />
    <glyph glyph-name="pencil" unicode="&#xf040;" horiz-adv-x="1515" 
d="M363 0l91 91l-235 235l-91 -91v-107h128v-128h107zM886 928c0 13 -9 22 -22 22c-6 0 -12 -2 -17 -7l-542 -542c-5 -5 -7 -11 -7 -17c0 -13 9 -22 22 -22c6 0 12 2 17 7l542 542c5 5 7 11 7 17zM832 1120l416 -416l-832 -832h-416v416zM1515 1024c0 -34 -14 -67 -37 -90
l-166 -166l-416 416l166 165c23 24 56 38 90 38s67 -14 91 -38l235 -234c23 -24 37 -57 37 -91z" />
    <glyph glyph-name="bookmark-o" unicode="&#xf097;" horiz-adv-x="1280" 
d="M1152 1280h-1024v-1242l423 406l89 85l89 -85l423 -406v1242zM1164 1408c15 0 30 -3 44 -9c44 -17 72 -58 72 -103v-1289c0 -45 -28 -86 -72 -103c-14 -6 -29 -8 -44 -8c-31 0 -60 11 -83 32l-441 424l-441 -424c-23 -21 -52 -33 -83 -33c-15 0 -30 3 -44 9
c-44 17 -72 58 -72 103v1289c0 45 28 86 72 103c14 6 29 9 44 9h1048z" />
    <glyph glyph-name="diamond" unicode="&#xf219;" horiz-adv-x="2048" 
d="M212 768l623 -665l-300 665h-323zM1024 -4l349 772h-698zM538 896l204 384h-262l-288 -384h346zM1213 103l623 665h-323zM683 896h682l-204 384h-274zM1510 896h346l-288 384h-262zM1651 1382l384 -512c19 -24 17 -59 -4 -82l-960 -1024c-12 -13 -29 -20 -47 -20
s-35 7 -47 20l-960 1024c-21 23 -23 58 -4 82l384 512c12 17 31 26 51 26h1152c20 0 39 -9 51 -26z" />
    <glyph glyph-name="share" unicode="&#xf064;" horiz-adv-x="1792" 
d="M1792 896c0 -17 -7 -33 -19 -45l-512 -512c-12 -12 -28 -19 -45 -19c-35 0 -64 29 -64 64v256h-224c-431 0 -714 -83 -714 -560c0 -41 2 -82 5 -123c1 -16 5 -34 5 -50c0 -19 -12 -35 -32 -35c-14 0 -21 7 -28 17c-15 21 -26 53 -37 76c-57 128 -127 311 -127 451
c0 112 11 227 53 333c139 345 547 403 875 403h224v256c0 35 29 64 64 64c17 0 33 -7 45 -19l512 -512c12 -12 19 -28 19 -45z" />
    <glyph glyph-name="envelope" unicode="&#xf0e0;" horiz-adv-x="1792" 
d="M1792 826v-794c0 -88 -72 -160 -160 -160h-1472c-88 0 -160 72 -160 160v794c30 -33 64 -62 101 -87c166 -113 334 -226 497 -345c84 -62 188 -138 297 -138h2c109 0 213 76 297 138c163 118 331 232 498 345c36 25 70 54 100 87zM1792 1120c0 -112 -83 -213 -171 -274
c-156 -108 -313 -216 -468 -325c-65 -45 -175 -137 -256 -137h-2c-81 0 -191 92 -256 137c-155 109 -312 217 -467 325c-71 48 -172 161 -172 252c0 98 53 182 160 182h1472c87 0 160 -72 160 -160z" />
    <glyph glyph-name="yahoo" unicode="&#xf19e;" horiz-adv-x="1318" 
d="M750 579l13 -707c-34 6 -69 11 -105 11c-35 0 -70 -5 -105 -11l13 707c-186 321 -361 648 -566 957c35 -9 71 -15 108 -15s75 7 111 15c140 -248 292 -489 439 -733c148 242 305 483 439 733c35 -9 71 -14 107 -14c38 0 77 5 114 14c-80 -110 -146 -230 -215 -347
c-119 -203 -236 -406 -353 -610z" />
    <glyph glyph-name="window-restore" unicode="&#xf2d2;" horiz-adv-x="2048" 
d="M256 0h768v512h-768v-512zM1280 512h512v768h-768v-256h96c88 0 160 -72 160 -160v-352zM2048 1376v-960c0 -88 -72 -160 -160 -160h-608v-352c0 -88 -72 -160 -160 -160h-960c-88 0 -160 72 -160 160v960c0 88 72 160 160 160h608v352c0 88 72 160 160 160h960
c88 0 160 -72 160 -160z" />
    <glyph glyph-name="glass" unicode="&#xf000;" horiz-adv-x="1606" 
d="M1606 1350c0 -29 -23 -58 -43 -78l-632 -632v-768h320c35 0 64 -29 64 -64s-29 -64 -64 -64h-896c-35 0 -64 29 -64 64s29 64 64 64h320v768l-632 632c-20 20 -43 49 -43 78c0 49 62 58 99 58h1408c37 0 99 -9 99 -58z" />
    <glyph glyph-name="flag" unicode="&#xf024;" horiz-adv-x="1728" 
d="M256 1280c0 -46 -25 -87 -64 -110v-1266c0 -17 -15 -32 -32 -32h-64c-17 0 -32 15 -32 32v1266c-39 23 -64 64 -64 110c0 71 57 128 128 128s128 -57 128 -128zM1728 1216v-763c0 -37 -23 -51 -52 -66c-113 -61 -238 -116 -369 -116c-184 0 -272 140 -490 140
c-159 0 -326 -72 -464 -146c-11 -6 -21 -9 -33 -9c-35 0 -64 29 -64 64v742c0 24 12 41 31 55c24 16 53 30 79 43c126 64 279 120 421 120c157 0 280 -52 419 -117c28 -14 57 -19 88 -19c157 0 326 136 370 136c35 0 64 -29 64 -64z" />
    <glyph glyph-name="train" unicode="&#xf238;" 
d="M1088 1536c247 0 448 -143 448 -320v-896c0 -173 -191 -313 -431 -319l213 -202c21 -20 7 -55 -22 -55h-1056c-29 0 -43 35 -22 55l213 202c-240 6 -431 146 -431 319v896c0 177 201 320 448 320h640zM768 192c106 0 192 86 192 192s-86 192 -192 192s-192 -86 -192 -192
s86 -192 192 -192zM1344 768v512h-1152v-512h1152z" />
    <glyph glyph-name="bullhorn" unicode="&#xf0a1;" horiz-adv-x="1792" 
d="M1664 896c71 0 128 -57 128 -128s-57 -128 -128 -128v-384c0 -70 -58 -128 -128 -128c-178 148 -465 351 -812 380c-119 -40 -160 -179 -82 -259c-70 -115 20 -196 126 -279c-62 -122 -320 -124 -412 -39c-58 178 -144 356 -74 581h-122c-88 0 -160 72 -160 160v192
c0 88 72 160 160 160h480c384 0 704 224 896 384c70 0 128 -58 128 -128v-384zM1536 292v954c-261 -200 -514 -315 -768 -343v-270c254 -28 507 -141 768 -341z" />
    <glyph glyph-name="pause-circle-o" unicode="&#xf28c;" 
d="M768 1408c424 0 768 -344 768 -768s-344 -768 -768 -768s-768 344 -768 768s344 768 768 768zM768 96c300 0 544 244 544 544s-244 544 -544 544s-544 -244 -544 -544s244 -544 544 -544zM864 320c-18 0 -32 14 -32 32v576c0 18 14 32 32 32h192c18 0 32 -14 32 -32v-576
c0 -18 -14 -32 -32 -32h-192zM480 320c-18 0 -32 14 -32 32v576c0 18 14 32 32 32h192c18 0 32 -14 32 -32v-576c0 -18 -14 -32 -32 -32h-192z" />
    <glyph glyph-name="snapchat-ghost" unicode="&#xf2ac;" horiz-adv-x="1634" 
d="M833 1408c180 2 329 -99 404 -261c23 -49 27 -125 27 -179c0 -64 -5 -127 -9 -191c8 -4 19 -7 28 -7c36 0 66 27 102 27c34 0 83 -24 83 -64c0 -96 -201 -78 -201 -162c0 -15 6 -29 12 -43c48 -105 139 -206 247 -251c26 -11 52 -17 80 -23c18 -4 28 -17 28 -35
c0 -68 -173 -96 -219 -103c-20 -31 -5 -104 -58 -104c-41 0 -82 13 -126 13c-21 0 -42 -1 -62 -5c-119 -20 -159 -148 -354 -148c-188 0 -233 128 -349 148c-21 4 -42 5 -63 5c-45 0 -88 -15 -124 -15c-56 0 -39 74 -60 106c-46 7 -219 35 -219 103c0 18 10 31 28 35
c28 6 54 12 80 23c107 44 200 146 247 251c6 14 12 28 12 43c0 84 -202 68 -202 161c0 39 46 64 81 64c31 0 62 -26 101 -26c11 0 22 2 32 7c-4 63 -9 126 -9 190c0 54 4 131 27 180c88 190 237 259 436 261z" />
    <glyph glyph-name="folder" unicode="&#xf07b;" horiz-adv-x="1664" 
d="M1664 928v-704c0 -123 -101 -224 -224 -224h-1216c-123 0 -224 101 -224 224v960c0 123 101 224 224 224h320c123 0 224 -101 224 -224v-32h672c123 0 224 -101 224 -224z" />
    <glyph glyph-name="outdent" unicode="&#xf03b;" horiz-adv-x="1792" 
d="M384 992v-576c0 -17 -15 -32 -32 -32c-8 0 -17 3 -23 9l-288 288c-6 6 -9 15 -9 23s3 17 9 23l288 288c6 6 15 9 23 9c17 0 32 -15 32 -32zM1792 224v-192c0 -17 -15 -32 -32 -32h-1728c-17 0 -32 15 -32 32v192c0 17 15 32 32 32h1728c17 0 32 -15 32 -32zM1792 608
v-192c0 -17 -15 -32 -32 -32h-1088c-17 0 -32 15 -32 32v192c0 17 15 32 32 32h1088c17 0 32 -15 32 -32zM1792 992v-192c0 -17 -15 -32 -32 -32h-1088c-17 0 -32 15 -32 32v192c0 17 15 32 32 32h1088c17 0 32 -15 32 -32zM1792 1376v-192c0 -17 -15 -32 -32 -32h-1728
c-17 0 -32 15 -32 32v192c0 17 15 32 32 32h1728c17 0 32 -15 32 -32z" />
    <glyph glyph-name="stumbleupon" unicode="&#xf1a4;" horiz-adv-x="1920" 
d="M1062 824v118c0 56 -46 102 -102 102s-102 -46 -102 -102v-612c0 -234 -194 -423 -429 -423c-237 0 -429 192 -429 429v266h328v-262c0 -57 46 -102 102 -102s102 45 102 102v620c0 229 196 413 428 413c233 0 428 -185 428 -416v-136l-195 -58zM1592 602h328v-266
c0 -237 -192 -429 -429 -429c-236 0 -429 190 -429 425v268l131 -61l195 58v-270c0 -56 46 -101 102 -101s102 45 102 101v275z" />
    <glyph glyph-name="address-card" unicode="&#xf2bb;" horiz-adv-x="2048" 
d="M1024 405c0 155 -38 327 -196 327c-49 -28 -115 -76 -188 -76s-139 48 -188 76c-158 0 -196 -172 -196 -327c0 -87 57 -149 128 -149h512c71 0 128 62 128 149zM867 925c0 125 -102 227 -227 227s-227 -102 -227 -227c0 -126 102 -227 227 -227s227 101 227 227z
M1792 416v64c0 18 -14 32 -32 32h-576c-18 0 -32 -14 -32 -32v-64c0 -18 14 -32 32 -32h576c18 0 32 14 32 32zM1792 676v56c0 20 -16 36 -36 36h-568c-20 0 -36 -16 -36 -36v-56c0 -20 16 -36 36 -36h568c20 0 36 16 36 36zM1792 928v64c0 18 -14 32 -32 32h-576
c-18 0 -32 -14 -32 -32v-64c0 -18 14 -32 32 -32h576c18 0 32 14 32 32zM2048 1248v-1216c0 -88 -72 -160 -160 -160h-352v96c0 18 -14 32 -32 32h-64c-18 0 -32 -14 -32 -32v-96h-768v96c0 18 -14 32 -32 32h-64c-18 0 -32 -14 -32 -32v-96h-352c-88 0 -160 72 -160 160
v1216c0 88 72 160 160 160h1728c88 0 160 -72 160 -160z" />
    <glyph glyph-name="i-cursor" unicode="&#xf246;" horiz-adv-x="896" 
d="M832 1408c-212 0 -320 -75 -320 -224v-416h128v-128h-128v-544c0 -149 108 -224 320 -224h64v-128h-64c-180 0 -312 52 -384 146c-72 -94 -204 -146 -384 -146h-64v128h64c212 0 320 75 320 224v544h-128v128h128v416c0 149 -108 224 -320 224h-64v128h64
c180 0 312 -52 384 -146c72 94 204 146 384 146h64v-128h-64z" />
    <glyph glyph-name="car" unicode="&#xf1b9;" horiz-adv-x="2048" 
d="M480 448c0 88 -72 160 -160 160s-160 -72 -160 -160s72 -160 160 -160s160 72 160 160zM516 768h1016l-89 357c-3 11 -23 27 -35 27h-768c-12 0 -32 -16 -35 -27zM1888 448c0 88 -72 160 -160 160s-160 -72 -160 -160s72 -160 160 -160s160 72 160 160zM2048 544v-384
c0 -18 -14 -32 -32 -32h-96v-128c0 -106 -86 -192 -192 -192s-192 86 -192 192v128h-1024v-128c0 -106 -86 -192 -192 -192s-192 86 -192 192v128h-96c-18 0 -32 14 -32 32v384c0 124 100 224 224 224h28l105 419c31 126 153 221 283 221h768c130 0 252 -95 283 -221
l105 -419h28c124 0 224 -100 224 -224z" />
    <glyph glyph-name="file-excel-o" unicode="&#xf1c3;" 
d="M1468 1156c37 -37 68 -111 68 -164v-1152c0 -53 -43 -96 -96 -96h-1344c-53 0 -96 43 -96 96v1600c0 53 43 96 96 96h896c53 0 127 -31 164 -68zM1024 1400v-376h376c-6 17 -15 34 -22 41l-313 313c-7 7 -24 16 -41 22zM1408 -128v1024h-416c-53 0 -96 43 -96 96v416
h-768v-1536h1280zM429 106h68l194 283l-189 272h-68v107h290v-107h-76l106 -159c8 -9 13 -16 17 -23c2 -3 4 -6 5 -10h2c0 -1 9 14 21 33l103 159h-74v107h279v-107h-67l-195 -282l192 -273h68v-106h-291v106h76l-107 161c-7 10 -13 16 -17 24c-2 3 -4 6 -5 10h-2
c-3 0 -9 -15 -21 -34l-103 -161h75v-106h-281v106z" />
    <glyph glyph-name="arrow-circle-o-left" unicode="&#xf190;" 
d="M1152 736v-192c0 -17 -15 -32 -32 -32h-352v-192c0 -18 -14 -32 -32 -32c-9 0 -17 4 -24 10l-319 319c-6 6 -9 15 -9 23s3 17 9 23l320 320c6 6 15 9 23 9c17 0 32 -15 32 -32v-192h352c17 0 32 -15 32 -32zM1312 640c0 300 -244 544 -544 544s-544 -244 -544 -544
s244 -544 544 -544s544 244 544 544zM1536 640c0 -424 -344 -768 -768 -768s-768 344 -768 768s344 768 768 768s768 -344 768 -768z" />
    <glyph glyph-name="paragraph" unicode="&#xf1dd;" horiz-adv-x="1254" 
d="M1254 1347v-73c0 -34 -27 -93 -61 -93c-17 0 -37 3 -54 -1c-16 -4 -28 -15 -32 -31c-5 -19 -3 -43 -3 -64v-1152c0 -34 -27 -61 -61 -61h-108c-34 0 -61 27 -61 61v1218h-143v-1218c0 -34 -27 -61 -61 -61h-108c-34 0 -61 27 -61 61v496c-97 8 -180 28 -245 59
c-84 39 -148 99 -192 179c-42 77 -64 164 -64 259c0 111 30 207 88 286c59 79 129 132 209 159c75 25 233 37 417 37h479c34 0 61 -27 61 -61z" />
    <glyph glyph-name="y-combinator" unicode="&#xf23b;" 
d="M809 532l266 499h-112l-157 -312s-24 -48 -44 -92c-19 46 -42 92 -42 92l-155 312h-120l263 -493v-324h101v318zM1536 1408v-1536h-1536v1536h1536z" />
    <glyph glyph-name="male" unicode="&#xf183;" horiz-adv-x="1024" 
d="M1024 832v-416c0 -53 -43 -96 -96 -96s-96 43 -96 96v352h-64v-912c0 -62 -50 -112 -112 -112s-112 50 -112 112v464h-64v-464c0 -62 -50 -112 -112 -112s-112 50 -112 112v912h-64v-352c0 -53 -43 -96 -96 -96s-96 43 -96 96v416c0 106 86 192 192 192h640
c106 0 192 -86 192 -192zM736 1280c0 -124 -100 -224 -224 -224s-224 100 -224 224s100 224 224 224s224 -100 224 -224z" />
    <glyph glyph-name="history" unicode="&#xf1da;" 
d="M1536 640c0 -423 -345 -768 -768 -768c-229 0 -445 101 -591 277c-10 13 -9 32 2 43l137 138c7 6 16 9 25 9c9 -1 18 -5 23 -12c98 -127 245 -199 404 -199c282 0 512 230 512 512s-230 512 -512 512c-131 0 -255 -50 -348 -137l137 -138c19 -18 24 -46 14 -69
c-10 -24 -33 -40 -59 -40h-448c-35 0 -64 29 -64 64v448c0 26 16 49 40 59c23 10 51 5 69 -14l130 -129c141 133 332 212 529 212c423 0 768 -345 768 -768zM896 928v-448c0 -18 -14 -32 -32 -32h-320c-18 0 -32 14 -32 32v64c0 18 14 32 32 32h224v352c0 18 14 32 32 32h64
c18 0 32 -14 32 -32z" />
    <glyph glyph-name="h-square" unicode="&#xf0fd;" 
d="M1280 192v896c0 35 -29 64 -64 64h-128c-35 0 -64 -29 -64 -64v-320h-512v320c0 35 -29 64 -64 64h-128c-35 0 -64 -29 -64 -64v-896c0 -35 29 -64 64 -64h128c35 0 64 29 64 64v320h512v-320c0 -35 29 -64 64 -64h128c35 0 64 29 64 64zM1536 1120v-960
c0 -159 -129 -288 -288 -288h-960c-159 0 -288 129 -288 288v960c0 159 129 288 288 288h960c159 0 288 -129 288 -288z" />
    <glyph glyph-name="heart" unicode="&#xf004;" horiz-adv-x="1792" 
d="M896 -128c-16 0 -32 6 -44 18l-624 602c-8 7 -228 208 -228 448c0 293 179 468 478 468c175 0 339 -138 418 -216c79 78 243 216 418 216c299 0 478 -175 478 -468c0 -240 -220 -441 -229 -450l-623 -600c-12 -12 -28 -18 -44 -18z" />
    <glyph glyph-name="sort-amount-desc" unicode="&#xf161;" horiz-adv-x="1760" 
d="M1184 -32v-192c0 -18 -14 -32 -32 -32h-256c-18 0 -32 14 -32 32v192c0 18 14 32 32 32h256c18 0 32 -14 32 -32zM704 96c0 -9 -4 -17 -10 -24l-319 -319c-7 -6 -15 -9 -23 -9s-16 3 -23 9l-320 320c-9 10 -12 23 -7 35s17 20 30 20h192v1376c0 18 14 32 32 32h192
c18 0 32 -14 32 -32v-1376h192c18 0 32 -14 32 -32zM1376 480v-192c0 -18 -14 -32 -32 -32h-448c-18 0 -32 14 -32 32v192c0 18 14 32 32 32h448c18 0 32 -14 32 -32zM1568 992v-192c0 -18 -14 -32 -32 -32h-640c-18 0 -32 14 -32 32v192c0 18 14 32 32 32h640
c18 0 32 -14 32 -32zM1760 1504v-192c0 -18 -14 -32 -32 -32h-832c-18 0 -32 14 -32 32v192c0 18 14 32 32 32h832c18 0 32 -14 32 -32z" />
    <glyph glyph-name="search-plus" unicode="&#xf00e;" horiz-adv-x="1664" 
d="M1024 736v-64c0 -17 -15 -32 -32 -32h-224v-224c0 -17 -15 -32 -32 -32h-64c-17 0 -32 15 -32 32v224h-224c-17 0 -32 15 -32 32v64c0 17 15 32 32 32h224v224c0 17 15 32 32 32h64c17 0 32 -15 32 -32v-224h224c17 0 32 -15 32 -32zM1152 704c0 247 -201 448 -448 448
s-448 -201 -448 -448s201 -448 448 -448s448 201 448 448zM1664 -128c0 -71 -57 -128 -128 -128c-34 0 -67 14 -90 38l-343 342c-117 -81 -257 -124 -399 -124c-389 0 -704 315 -704 704s315 704 704 704s704 -315 704 -704c0 -142 -43 -282 -124 -399l343 -343
c23 -23 37 -56 37 -90z" />
    <glyph glyph-name="life-ring" unicode="&#xf1cd;" horiz-adv-x="1792" 
d="M896 1536c495 0 896 -401 896 -896s-401 -896 -896 -896s-896 401 -896 896s401 896 896 896zM896 1408c-130 0 -253 -33 -361 -90l194 -194c53 18 109 28 167 28c59 0 114 -10 167 -28l194 194c-108 57 -231 90 -361 90zM218 279l194 194c-18 53 -28 109 -28 167
c0 59 10 114 28 167l-194 194c-57 -108 -90 -231 -90 -361s33 -253 90 -361zM896 -128c130 0 253 33 361 90l-194 194c-53 -18 -108 -28 -167 -28c-58 0 -114 10 -167 28l-194 -194c108 -57 231 -90 361 -90zM896 256c212 0 384 172 384 384s-172 384 -384 384
s-384 -172 -384 -384s172 -384 384 -384zM1380 473l194 -194c57 108 90 231 90 361s-33 253 -90 361l-194 -194c18 -53 28 -109 28 -167s-10 -114 -28 -167z" />
    <glyph glyph-name="lock" unicode="&#xf023;" horiz-adv-x="1152" 
d="M320 768h512v192c0 141 -115 256 -256 256s-256 -115 -256 -256v-192zM1152 672v-576c0 -53 -43 -96 -96 -96h-960c-53 0 -96 43 -96 96v576c0 53 43 96 96 96h32v192c0 246 202 448 448 448s448 -202 448 -448v-192h32c53 0 96 -43 96 -96z" />
    <glyph glyph-name="git-square" unicode="&#xf1d2;" 
d="M582 228c0 -54 -49 -66 -93 -66c-43 0 -107 7 -107 63c0 55 54 64 98 64c42 0 102 -7 102 -61zM546 694c0 -50 -20 -85 -74 -85c-55 0 -77 32 -77 84s20 90 77 90c51 0 74 -42 74 -89zM712 769v125c-43 -16 -89 -29 -135 -29c-33 19 -71 29 -110 29
c-114 0 -204 -84 -204 -200c0 -62 41 -148 103 -169v-3c-32 -14 -38 -53 -38 -85c0 -33 12 -60 41 -77v-3c-68 -22 -113 -65 -113 -139c0 -127 121 -163 227 -163c128 0 224 47 224 188c0 100 -91 130 -174 145c-28 5 -76 25 -76 60c0 33 18 47 49 52c102 20 167 99 167 204
c0 18 -4 35 -10 52c16 4 33 8 49 13zM771 350h137c-2 27 -2 55 -2 82v387c0 23 0 46 2 69h-137c3 -23 3 -48 3 -71v-392c0 -25 0 -50 -3 -75zM1280 366v121c-20 -14 -44 -21 -68 -21c-45 0 -53 45 -53 82v225h52c18 0 35 -2 53 -2v117h-105c0 34 -2 68 3 102h-140
c3 -18 4 -36 4 -55v-47h-60v-117c12 1 24 3 37 3c7 0 15 -1 23 -1v-2h-2v-217c0 -108 16 -212 148 -212c37 0 75 6 108 24zM924 1072c0 47 -35 91 -84 91s-85 -43 -85 -91c0 -47 37 -89 85 -89s84 43 84 89zM1536 1120v-960c0 -159 -129 -288 -288 -288h-960
c-159 0 -288 129 -288 288v960c0 159 129 288 288 288h960c159 0 288 -129 288 -288z" />
    <glyph glyph-name="mouse-pointer" unicode="&#xf245;" horiz-adv-x="1152" 
d="M1133 493c19 -18 24 -46 14 -69c-10 -24 -33 -40 -59 -40h-382l201 -476c14 -33 -2 -70 -34 -84l-177 -75c-33 -14 -70 2 -84 34l-191 452l-312 -312c-12 -12 -28 -19 -45 -19c-8 0 -17 2 -24 5c-24 10 -40 33 -40 59v1504c0 26 16 49 40 59c7 3 16 5 24 5
c17 0 33 -6 45 -19z" />
    <glyph glyph-name="sign-in" unicode="&#xf090;" 
d="M1184 640c0 -17 -7 -33 -19 -45l-544 -544c-12 -12 -28 -19 -45 -19c-35 0 -64 29 -64 64v288h-448c-35 0 -64 29 -64 64v384c0 35 29 64 64 64h448v288c0 35 29 64 64 64c17 0 33 -7 45 -19l544 -544c12 -12 19 -28 19 -45zM1536 992v-704c0 -159 -129 -288 -288 -288
h-320c-17 0 -32 15 -32 32c0 28 -13 96 32 96h320c88 0 160 72 160 160v704c0 88 -72 160 -160 160h-288c-25 0 -64 -5 -64 32c0 28 -13 96 32 96h320c159 0 288 -129 288 -288z" />
    <glyph glyph-name="odnoklassniki-square" unicode="&#xf264;" 
d="M927 956c0 -88 -71 -159 -159 -159s-159 71 -159 159s71 159 159 159s159 -71 159 -159zM1141 593c-18 36 -69 67 -136 14c0 0 -91 -72 -237 -72s-237 72 -237 72c-67 53 -118 22 -136 -14c-32 -64 4 -95 85 -148c69 -44 165 -61 226 -67l-51 -52
c-72 -72 -142 -142 -191 -190c-29 -29 -29 -76 0 -105l9 -9c29 -29 76 -29 105 0l191 191c72 -73 142 -143 191 -191c29 -29 76 -29 105 0l9 9c29 29 29 76 0 105l-191 190l-52 52c62 6 156 23 225 67c81 53 117 84 85 148zM1092 956c0 179 -145 324 -324 324
s-324 -145 -324 -324s145 -324 324 -324s324 145 324 324zM1536 1120v-960c0 -159 -129 -288 -288 -288h-960c-159 0 -288 129 -288 288v960c0 159 129 288 288 288h960c159 0 288 -129 288 -288z" />
    <glyph glyph-name="tag" unicode="&#xf02b;" horiz-adv-x="1515" 
d="M448 1088c0 71 -57 128 -128 128s-128 -57 -128 -128s57 -128 128 -128s128 57 128 128zM1515 512c0 -34 -14 -67 -37 -90l-491 -492c-24 -23 -57 -37 -91 -37s-67 14 -90 37l-715 716c-51 50 -91 147 -91 218v416c0 70 58 128 128 128h416c71 0 168 -40 219 -91
l715 -714c23 -24 37 -57 37 -91z" />
    <glyph glyph-name="align-justify" unicode="&#xf039;" horiz-adv-x="1792" 
d="M1792 192v-128c0 -35 -29 -64 -64 -64h-1664c-35 0 -64 29 -64 64v128c0 35 29 64 64 64h1664c35 0 64 -29 64 -64zM1792 576v-128c0 -35 -29 -64 -64 -64h-1664c-35 0 -64 29 -64 64v128c0 35 29 64 64 64h1664c35 0 64 -29 64 -64zM1792 960v-128
c0 -35 -29 -64 -64 -64h-1664c-35 0 -64 29 -64 64v128c0 35 29 64 64 64h1664c35 0 64 -29 64 -64zM1792 1344v-128c0 -35 -29 -64 -64 -64h-1664c-35 0 -64 29 -64 64v128c0 35 29 64 64 64h1664c35 0 64 -29 64 -64z" />
    <glyph glyph-name="hospital-o" unicode="&#xf0f8;" horiz-adv-x="1408" 
d="M384 224v-64c0 -17 -15 -32 -32 -32h-64c-17 0 -32 15 -32 32v64c0 17 15 32 32 32h64c17 0 32 -15 32 -32zM384 480v-64c0 -17 -15 -32 -32 -32h-64c-17 0 -32 15 -32 32v64c0 17 15 32 32 32h64c17 0 32 -15 32 -32zM640 480v-64c0 -17 -15 -32 -32 -32h-64
c-17 0 -32 15 -32 32v64c0 17 15 32 32 32h64c17 0 32 -15 32 -32zM384 736v-64c0 -17 -15 -32 -32 -32h-64c-17 0 -32 15 -32 32v64c0 17 15 32 32 32h64c17 0 32 -15 32 -32zM1152 224v-64c0 -17 -15 -32 -32 -32h-64c-17 0 -32 15 -32 32v64c0 17 15 32 32 32h64
c17 0 32 -15 32 -32zM896 480v-64c0 -17 -15 -32 -32 -32h-64c-17 0 -32 15 -32 32v64c0 17 15 32 32 32h64c17 0 32 -15 32 -32zM640 736v-64c0 -17 -15 -32 -32 -32h-64c-17 0 -32 15 -32 32v64c0 17 15 32 32 32h64c17 0 32 -15 32 -32zM1152 480v-64
c0 -17 -15 -32 -32 -32h-64c-17 0 -32 15 -32 32v64c0 17 15 32 32 32h64c17 0 32 -15 32 -32zM896 736v-64c0 -17 -15 -32 -32 -32h-64c-17 0 -32 15 -32 32v64c0 17 15 32 32 32h64c17 0 32 -15 32 -32zM1152 736v-64c0 -17 -15 -32 -32 -32h-64c-17 0 -32 15 -32 32v64
c0 17 15 32 32 32h64c17 0 32 -15 32 -32zM896 -128h384v1152h-256v-32c0 -53 -43 -96 -96 -96h-448c-53 0 -96 43 -96 96v32h-256v-1152h384v224c0 17 15 32 32 32h320c17 0 32 -15 32 -32v-224zM896 1056v320c0 17 -15 32 -32 32h-64c-17 0 -32 -15 -32 -32v-96h-128v96
c0 17 -15 32 -32 32h-64c-17 0 -32 -15 -32 -32v-320c0 -17 15 -32 32 -32h64c17 0 32 15 32 32v96h128v-96c0 -17 15 -32 32 -32h64c17 0 32 15 32 32zM1408 1088v-1280c0 -35 -29 -64 -64 -64h-1280c-35 0 -64 29 -64 64v1280c0 35 29 64 64 64h320v288c0 53 43 96 96 96
h448c53 0 96 -43 96 -96v-288h320c35 0 64 -29 64 -64z" />
    <glyph glyph-name="chevron-circle-down" unicode="&#xf13a;" 
d="M813 237l454 454c25 25 25 65 0 90l-102 102c-25 25 -65 25 -90 0l-307 -307l-307 307c-25 25 -65 25 -90 0l-102 -102c-25 -25 -25 -65 0 -90l454 -454c25 -25 65 -25 90 0zM1536 640c0 -424 -344 -768 -768 -768s-768 344 -768 768s344 768 768 768s768 -344 768 -768z
" />
    <glyph glyph-name="filter" unicode="&#xf0b0;" horiz-adv-x="1408" 
d="M1403 1241c10 -24 5 -52 -14 -70l-493 -493v-742c0 -26 -16 -49 -39 -59c-8 -3 -17 -5 -25 -5c-17 0 -33 6 -45 19l-256 256c-12 12 -19 28 -19 45v486l-493 493c-19 18 -24 46 -14 70c10 23 33 39 59 39h1280c26 0 49 -16 59 -39z" />
    <glyph glyph-name="google-plus" unicode="&#xf0d5;" horiz-adv-x="2304" 
d="M1437 623c0 -419 -281 -716 -704 -716c-405 0 -733 328 -733 733s328 733 733 733c198 0 363 -72 491 -192l-199 -191c-54 52 -149 113 -292 113c-250 0 -454 -207 -454 -463s204 -463 454 -463c290 0 399 209 416 316h-416v252h692c7 -37 12 -74 12 -122zM2304 745v-210
h-209v-209h-210v209h-209v210h209v209h210v-209h209z" />
    <glyph glyph-name="sticky-note-o" unicode="&#xf24a;" 
d="M1400 256h-248v-248c17 6 34 15 41 22l185 185c7 7 16 24 22 41zM1120 384h288v896h-1280v-1280h896v288c0 53 43 96 96 96zM1536 1312v-1024c0 -53 -31 -127 -68 -164l-184 -184c-37 -37 -111 -68 -164 -68h-1024c-53 0 -96 43 -96 96v1344c0 53 43 96 96 96h1344
c53 0 96 -43 96 -96z" />
    <glyph glyph-name="moon-o" unicode="&#xf186;" horiz-adv-x="1471" 
d="M1262 233c-36 -6 -73 -9 -110 -9c-371 0 -672 301 -672 672c0 127 37 251 104 357c-266 -79 -456 -323 -456 -613c0 -353 287 -640 640 -640c193 0 374 88 494 233zM1465 318c-125 -271 -399 -446 -697 -446c-423 0 -768 345 -768 768c0 415 325 752 739 767
c28 1 51 -15 61 -39c11 -25 4 -54 -15 -72c-114 -104 -177 -246 -177 -400c0 -300 244 -544 544 -544c79 0 155 17 228 51c25 11 53 6 72 -13s24 -48 13 -72z" />
    <glyph glyph-name="comments-o" unicode="&#xf0e6;" horiz-adv-x="1792" 
d="M704 1152c-312 0 -576 -176 -576 -384c0 -110 74 -216 202 -290l97 -56l-35 -84c21 12 42 25 62 39l44 31l53 -10c50 -9 101 -14 153 -14c312 0 576 176 576 384s-264 384 -576 384zM704 1280c389 0 704 -229 704 -512s-315 -512 -704 -512c-61 0 -120 6 -176 16
c-83 -59 -177 -102 -278 -128c-27 -7 -56 -12 -86 -16h-3c-15 0 -29 12 -32 29c-4 19 9 31 20 44c39 44 83 83 117 166c-162 94 -266 239 -266 401c0 283 315 512 704 512zM1526 111c34 -83 78 -122 117 -166c11 -13 24 -25 20 -44c-4 -18 -19 -31 -35 -29
c-30 4 -59 9 -86 16c-101 26 -195 69 -278 128c-56 -10 -115 -16 -176 -16c-181 0 -347 50 -472 132c29 -2 59 -4 88 -4c215 0 418 62 573 174c167 122 259 287 259 466c0 52 -8 103 -23 152c169 -93 279 -241 279 -408c0 -163 -104 -307 -266 -401z" />
    <glyph glyph-name="lastfm" unicode="&#xf202;" horiz-adv-x="1792" 
d="M1292 832c0 -6 8 -34 10 -41c27 -82 90 -99 165 -120c167 -47 325 -136 325 -332c0 -199 -166 -339 -360 -339c-322 0 -422 394 -515 634c-77 198 -158 314 -381 314c-198 0 -372 -190 -372 -385c0 -207 155 -399 370 -399c95 0 194 20 258 95c31 35 61 73 83 116
l84 -152c-11 -25 -27 -49 -44 -70l1 -1c-101 -117 -239 -152 -388 -152c-302 0 -528 267 -528 561c0 285 248 550 536 550c478 0 502 -414 664 -747c44 -92 119 -200 233 -200c104 0 196 67 196 177c0 238 -437 76 -499 467c-2 11 -3 22 -3 33c0 148 139 275 286 270
c88 -3 141 -6 211 -68h-1c27 -25 47 -59 68 -88l-129 -99c-15 28 -29 51 -54 70v1c-24 22 -67 21 -97 21c-65 0 -119 -49 -119 -116z" />
    <glyph glyph-name="peertube" unicode="&#xf2e4;" horiz-adv-x="1350" 
d="M0 1536l675 -450l-675 -450v900zM675 1086l675 -450l-675 -450v900zM0 636l675 -450l-675 -450v900z" />
    <glyph glyph-name="pagelines" unicode="&#xf18c;" horiz-adv-x="1402" 
d="M1402 433c-201 -499 -683 -197 -683 -197c-148 -299 -392 -491 -674 -492c-25 0 -45 20 -45 45s20 44 45 44c235 1 440 156 574 402c-150 -58 -433 -102 -590 300c398 164 581 -41 651 -166c36 89 62 186 79 291c0 0 -510 -80 -546 358c435 175 557 -280 557 -280
c6 61 12 192 12 195c0 0 -388 269 -139 603c455 -157 224 -593 224 -593c2 -6 2 -87 0 -122c0 0 165 325 498 210c-15 -489 -518 -388 -518 -388c-16 -100 -41 -195 -73 -283c0 0 303 335 628 73z" />
    <glyph glyph-name="credit-card-alt" unicode="&#xf283;" horiz-adv-x="2304" 
d="M0 32v608h2304v-608c0 -88 -72 -160 -160 -160h-1984c-88 0 -160 72 -160 160zM640 256v-128h384v128h-384zM256 256v-128h256v128h-256zM2144 1408c88 0 160 -72 160 -160v-224h-2304v224c0 88 72 160 160 160h1984z" />
    <glyph glyph-name="file-word-o" unicode="&#xf1c2;" 
d="M1468 1156c37 -37 68 -111 68 -164v-1152c0 -53 -43 -96 -96 -96h-1344c-53 0 -96 43 -96 96v1600c0 53 43 96 96 96h896c53 0 127 -31 164 -68zM1024 1400v-376h376c-6 17 -15 34 -22 41l-313 313c-7 7 -24 16 -41 22zM1408 -128v1024h-416c-53 0 -96 43 -96 96v416
h-768v-1536h1280zM233 768h300v-107h-90l99 -438c4 -16 6 -33 7 -46l2 -21h4l4 21c3 13 4 30 8 46l144 545h114l144 -545c4 -16 6 -33 9 -46c1 -7 3 -15 3 -21h4l2 21c1 13 3 30 7 46l99 438h-90v107h300v-107h-70l-164 -661h-159l-128 485c-5 16 -6 32 -9 46l-3 24h-4
c0 -8 -1 -16 -2 -24c-2 -16 -5 -31 -10 -46l-128 -485h-159l-164 661h-70v107z" />
    <glyph glyph-name="map" unicode="&#xf279;" horiz-adv-x="1792" 
d="M512 1536c17 0 32 -15 32 -32v-1472c0 -12 -7 -23 -17 -28l-480 -256c-5 -3 -10 -4 -15 -4c-17 0 -32 15 -32 32v1472c0 12 7 23 17 28l480 256c5 3 10 4 15 4zM1760 1536c17 0 32 -15 32 -32v-1472c0 -12 -7 -23 -17 -28l-480 -256c-5 -3 -10 -4 -15 -4
c-17 0 -32 15 -32 32v1472c0 12 7 23 17 28l480 256c5 3 10 4 15 4zM640 1536c5 0 10 -1 14 -3l512 -256c11 -6 18 -17 18 -29v-1472c0 -17 -15 -32 -32 -32c-5 0 -10 1 -14 3l-512 256c-11 6 -18 17 -18 29v1472c0 17 15 32 32 32z" />
    <glyph glyph-name="object-ungroup" unicode="&#xf248;" horiz-adv-x="2304" 
d="M2304 768h-128v-640h128v-384h-384v128h-896v-128h-384v384h128v128h-384v-128h-384v384h128v640h-128v384h384v-128h896v128h384v-384h-128v-128h384v128h384v-384zM2048 1024v-128h128v128h-128zM1408 1408v-128h128v128h-128zM128 1408v-128h128v128h-128zM256 256
v128h-128v-128h128zM1536 384h-128v-128h128v128zM384 384h896v128h128v640h-128v128h-896v-128h-128v-640h128v-128zM896 -128v128h-128v-128h128zM2176 -128v128h-128v-128h128zM2048 128v640h-128v128h-384v-384h128v-384h-384v128h-384v-128h128v-128h896v128h128z" />
    <glyph glyph-name="briefcase" unicode="&#xf0b1;" horiz-adv-x="1792" 
d="M640 1280h512v128h-512v-128zM1792 640v-480c0 -88 -72 -160 -160 -160h-1472c-88 0 -160 72 -160 160v480h672v-160c0 -35 29 -64 64 -64h320c35 0 64 29 64 64v160h672zM1024 640v-128h-256v128h256zM1792 1120v-384h-1792v384c0 88 72 160 160 160h352v160
c0 53 43 96 96 96h576c53 0 96 -43 96 -96v-160h352c88 0 160 -72 160 -160z" />
    <glyph glyph-name="stop" unicode="&#xf04d;" 
d="M1536 1344v-1408c0 -35 -29 -64 -64 -64h-1408c-35 0 -64 29 -64 64v1408c0 35 29 64 64 64h1408c35 0 64 -29 64 -64z" />
    <glyph glyph-name="clone" unicode="&#xf24d;" horiz-adv-x="1792" 
d="M1664 -96v1088c0 17 -15 32 -32 32h-1088c-17 0 -32 -15 -32 -32v-1088c0 -17 15 -32 32 -32h1088c17 0 32 15 32 32zM1792 992v-1088c0 -88 -72 -160 -160 -160h-1088c-88 0 -160 72 -160 160v1088c0 88 72 160 160 160h1088c88 0 160 -72 160 -160zM1408 1376v-160
h-128v160c0 17 -15 32 -32 32h-1088c-17 0 -32 -15 -32 -32v-1088c0 -17 15 -32 32 -32h160v-128h-160c-88 0 -160 72 -160 160v1088c0 88 72 160 160 160h1088c88 0 160 -72 160 -160z" />
    <glyph glyph-name="thermometer-full" unicode="&#xf2c7;" horiz-adv-x="1024" 
d="M640 192c0 -106 -86 -192 -192 -192s-192 86 -192 192c0 80 50 153 128 181v907h128v-907c78 -28 128 -101 128 -181zM768 192c0 105 -50 197 -128 256v768c0 106 -86 192 -192 192s-192 -86 -192 -192v-768c-78 -59 -128 -151 -128 -256c0 -177 143 -320 320 -320
s320 143 320 320zM896 192c0 -247 -201 -448 -448 -448s-448 201 -448 448c0 122 49 232 128 313v711c0 177 143 320 320 320s320 -143 320 -320v-711c79 -81 128 -191 128 -313zM1024 768v-128h-192v128h192zM1024 1024v-128h-192v128h192zM1024 1280v-128h-192v128h192z
" />
    <glyph glyph-name="plane" unicode="&#xf072;" horiz-adv-x="1402" 
d="M1376 1376c64 -64 0 -224 -96 -320l-161 -161l160 -696c3 -12 -2 -25 -12 -33l-128 -96c-5 -4 -12 -6 -19 -6c-2 0 -4 0 -7 1c-9 2 -17 7 -21 16l-279 508l-259 -259l53 -194c3 -11 0 -22 -8 -31l-96 -96c-6 -6 -15 -9 -23 -9h-2c-10 1 -18 5 -24 13l-189 252l-252 189
c-8 5 -12 14 -13 23s3 18 9 25l96 97c6 6 15 9 23 9c3 0 6 0 8 -1l194 -53l259 259l-508 279c-9 5 -15 14 -17 24c-1 9 2 20 9 27l128 128c8 7 20 11 30 8l665 -159l160 160c96 96 256 160 320 96z" />
    <glyph glyph-name="check-square" unicode="&#xf14a;" 
d="M685 237l614 614c25 25 25 65 0 90l-102 102c-25 25 -65 25 -90 0l-467 -467l-211 211c-25 25 -65 25 -90 0l-102 -102c-25 -25 -25 -65 0 -90l358 -358c25 -25 65 -25 90 0zM1536 1120v-960c0 -159 -129 -288 -288 -288h-960c-159 0 -288 129 -288 288v960
c0 159 129 288 288 288h960c159 0 288 -129 288 -288z" />
    <glyph glyph-name="window-maximize" unicode="&#xf2d0;" horiz-adv-x="1792" 
d="M256 128h1280v768h-1280v-768zM1792 1248v-1216c0 -88 -72 -160 -160 -160h-1472c-88 0 -160 72 -160 160v1216c0 88 72 160 160 160h1472c88 0 160 -72 160 -160z" />
    <glyph glyph-name="github" unicode="&#xf09b;" 
d="M768 1408c424 0 768 -344 768 -768c0 -339 -220 -627 -525 -729c-39 -7 -53 17 -53 37c0 25 1 108 1 211c0 72 -24 118 -52 142c171 19 351 84 351 379c0 84 -30 152 -79 206c8 20 34 98 -8 204c-64 20 -211 -79 -211 -79c-61 17 -127 26 -192 26s-131 -9 -192 -26
c0 0 -147 99 -211 79c-42 -106 -16 -184 -8 -204c-49 -54 -79 -122 -79 -206c0 -294 179 -360 350 -379c-22 -20 -42 -54 -49 -103c-44 -20 -156 -54 -223 64c-42 73 -118 79 -118 79c-75 1 -5 -47 -5 -47c50 -23 85 -112 85 -112c45 -137 259 -91 259 -91
c0 -64 1 -124 1 -143c0 -20 -14 -44 -53 -37c-305 102 -525 390 -525 729c0 424 344 768 768 768zM291 305c-2 -4 -8 -5 -13 -2c-6 3 -9 8 -7 12c2 3 7 4 13 2c6 -3 9 -8 7 -12zM322 271c-4 -4 -11 -2 -16 3c-5 6 -6 13 -2 16c4 4 11 2 16 -3c5 -6 6 -13 2 -16zM352 226
c-4 -3 -12 0 -17 7s-5 15 0 18c5 4 13 1 17 -6c5 -7 5 -15 0 -19zM394 184c-4 -5 -13 -4 -20 3c-7 6 -9 15 -4 19c4 5 13 4 20 -3c6 -6 8 -15 4 -19zM451 159c-2 -6 -11 -9 -19 -6c-9 2 -15 9 -13 15s11 9 19 7c9 -3 15 -10 13 -16zM514 154c0 -6 -7 -11 -16 -11
c-10 -1 -17 4 -17 11c0 6 7 11 16 11c9 1 17 -4 17 -11zM572 164c1 -6 -5 -12 -14 -14s-17 2 -18 8c-1 7 5 13 14 15c9 1 17 -3 18 -9z" />
    <glyph glyph-name="mastodon" unicode="&#xf2e1;" 
d="M1503 425c-23 -116 -202 -243 -408 -268c-108 -13 -214 -25 -327 -20c-185 8 -330 44 -330 44c0 -18 1 -35 3 -51c24 -182 181 -193 329 -198c150 -5 284 37 284 37l6 -136s-105 -56 -292 -66c-103 -6 -230 3 -379 42c-323 85 -379 430 -388 779c-3 104 -1 201 -1 283
c0 357 235 462 235 462c118 54 320 77 531 79h5c211 -2 413 -25 531 -79c0 0 234 -105 234 -462c0 0 3 -263 -33 -446zM1260 843c0 88 -22 160 -68 211c-47 52 -107 79 -183 79c-88 0 -154 -34 -198 -101l-43 -72l-43 72c-44 67 -110 101 -198 101c-76 0 -136 -27 -183 -79
c-45 -52 -68 -123 -68 -211v-432h171v420c0 88 38 133 112 133c82 0 124 -54 124 -159v-229h170v229c0 105 42 159 124 159c74 0 112 -45 112 -133v-420h171v432v0z" />
    <glyph glyph-name="envelope-open" unicode="&#xf2b6;" horiz-adv-x="1792" 
d="M1792 882v-978c0 -88 -72 -160 -160 -160h-1472c-88 0 -160 72 -160 160v978c0 9 4 18 11 24c105 92 106 103 628 484c63 46 174 146 257 146s195 -101 257 -146c522 -381 523 -392 628 -484c7 -6 11 -15 11 -24zM1228 297c156 113 265 192 345 252c14 10 17 30 6 44
l-38 52c-11 14 -31 17 -45 6c-79 -58 -187 -138 -343 -250c-62 -45 -174 -145 -257 -145s-195 100 -257 145c-156 113 -264 192 -343 250c-14 11 -34 8 -45 -6l-38 -52c-11 -14 -8 -34 6 -44c80 -60 189 -139 345 -252c78 -56 201 -169 332 -169c132 0 258 115 332 169z" />
    <glyph glyph-name="step-backward" unicode="&#xf048;" horiz-adv-x="1024" 
d="M979 1395c25 25 45 16 45 -19v-1472c0 -35 -20 -44 -45 -19l-710 710c-6 6 -10 12 -13 19v-678c0 -35 -29 -64 -64 -64h-128c-35 0 -64 29 -64 64v1408c0 35 29 64 64 64h128c35 0 64 -29 64 -64v-678c3 7 7 13 13 19z" />
    <glyph glyph-name="wheelchair" unicode="&#xf193;" horiz-adv-x="1629" 
d="M1023 349l102 -204c-77 -238 -299 -401 -549 -401c-317 0 -576 259 -576 576c0 242 152 458 379 541l17 -131c-163 -72 -268 -232 -268 -410c0 -247 201 -448 448 -448c257 0 465 220 447 477zM1571 249l58 -114l-256 -128c-9 -5 -19 -7 -29 -7c-24 0 -47 14 -57 35
l-239 477h-472c-32 0 -60 25 -64 57l-96 779c-1 10 3 32 6 42c19 69 83 114 154 114c88 0 160 -72 160 -160c0 -91 -80 -169 -172 -159l37 -289h423v-128h-407l16 -128h455c24 0 47 -14 57 -35l228 -455z" />
    <glyph glyph-name="cutlery" unicode="&#xf0f5;" horiz-adv-x="1408" 
d="M640 1472v-640c0 -81 -52 -154 -128 -181v-779c0 -70 -58 -128 -128 -128h-128c-70 0 -128 58 -128 128v779c-76 27 -128 100 -128 181v640c0 35 29 64 64 64s64 -29 64 -64v-416c0 -35 29 -64 64 -64s64 29 64 64v416c0 35 29 64 64 64s64 -29 64 -64v-416
c0 -35 29 -64 64 -64s64 29 64 64v416c0 35 29 64 64 64s64 -29 64 -64zM1408 1472v-1600c0 -70 -58 -128 -128 -128h-128c-70 0 -128 58 -128 128v512h-224c-17 0 -32 15 -32 32v800c0 176 144 320 320 320h256c35 0 64 -29 64 -64z" />
    <glyph glyph-name="microphone-slash" unicode="&#xf131;" horiz-adv-x="1382" 
d="M258 591l-101 -101c-27 66 -42 138 -42 214v128c0 35 29 64 64 64s64 -29 64 -64v-128c0 -39 6 -77 15 -113zM1372 1193l-361 -361v-128c0 -176 -144 -320 -320 -320c-38 0 -75 7 -109 19l-96 -96c61 -32 131 -51 205 -51c247 0 448 201 448 448v128c0 35 29 64 64 64
s64 -29 64 -64v-128c0 -296 -224 -540 -512 -572v-132h256c35 0 64 -29 64 -64s-29 -64 -64 -64h-640c-35 0 -64 29 -64 64s29 64 64 64h256v132c-85 9 -165 38 -235 81l-254 -254c-13 -13 -33 -13 -46 0l-82 82c-13 13 -13 33 0 46l1234 1234c13 13 33 13 46 0l82 -82
c13 -13 13 -33 0 -46zM992 1325l-621 -621v512c0 176 144 320 320 320c138 0 256 -89 301 -211z" />
    <glyph glyph-name="user-plus" unicode="&#xf234;" horiz-adv-x="2048" 
d="M704 640c-212 0 -384 172 -384 384s172 384 384 384s384 -172 384 -384s-172 -384 -384 -384zM1664 512h352c17 0 32 -15 32 -32v-192c0 -17 -15 -32 -32 -32h-352v-352c0 -17 -15 -32 -32 -32h-192c-17 0 -32 15 -32 32v352h-352c-17 0 -32 15 -32 32v192
c0 17 15 32 32 32h352v352c0 17 15 32 32 32h192c17 0 32 -15 32 -32v-352zM928 288c0 -70 58 -128 128 -128h256v-238c-49 -36 -111 -50 -171 -50h-874c-160 0 -267 96 -267 259c0 226 53 573 346 573c16 0 27 -7 39 -17c98 -75 193 -122 319 -122s221 47 319 122
c12 10 23 17 39 17c85 0 160 -32 217 -96h-223c-70 0 -128 -58 -128 -128v-192z" />
    <glyph glyph-name="truck" unicode="&#xf0d1;" horiz-adv-x="1728" 
d="M576 128c0 70 -58 128 -128 128s-128 -58 -128 -128s58 -128 128 -128s128 58 128 128zM192 640h384v256h-158c-4 0 -19 -6 -22 -9l-195 -195c-3 -3 -9 -18 -9 -22v-30zM1472 128c0 70 -58 128 -128 128s-128 -58 -128 -128s58 -128 128 -128s128 58 128 128zM1728 1216
v-1024c0 -74 -78 -64 -128 -64c0 -141 -115 -256 -256 -256s-256 115 -256 256h-384c0 -141 -115 -256 -256 -256s-256 115 -256 256h-64c-50 0 -128 -10 -128 64c0 35 29 64 64 64v320c0 71 -10 150 45 205l198 198c25 25 73 45 109 45h160v192c0 35 29 64 64 64h1024
c35 0 64 -29 64 -64z" />
    <glyph glyph-name="wrench" unicode="&#xf0ad;" horiz-adv-x="1641" 
d="M363 64c0 35 -29 64 -64 64s-64 -29 -64 -64s29 -64 64 -64s64 29 64 64zM1007 484l-682 -682c-23 -23 -56 -37 -90 -37s-67 14 -91 37l-106 108c-24 23 -38 56 -38 90s14 67 38 91l681 681c52 -131 157 -236 288 -288zM1641 919c0 -33 -12 -74 -23 -106
c-63 -178 -234 -301 -423 -301c-247 0 -448 201 -448 448s201 448 448 448c73 0 168 -22 229 -63c10 -7 16 -16 16 -28c0 -11 -7 -22 -16 -28l-293 -169v-224l193 -107c33 19 265 165 285 165s32 -15 32 -35z" />
    <glyph glyph-name="ambulance" unicode="&#xf0f9;" horiz-adv-x="1856" 
d="M576 128c0 71 -57 128 -128 128s-128 -57 -128 -128s57 -128 128 -128s128 57 128 128zM192 640h384v256h-158c-6 -1 -17 -5 -22 -9l-195 -195c-3 -5 -8 -16 -9 -22v-30zM1472 128c0 71 -57 128 -128 128s-128 -57 -128 -128s57 -128 128 -128s128 57 128 128zM1600 800
v192c0 18 -14 32 -32 32h-224v224c0 18 -14 32 -32 32h-192c-18 0 -32 -14 -32 -32v-224h-224c-18 0 -32 -14 -32 -32v-192c0 -18 14 -32 32 -32h224v-224c0 -18 14 -32 32 -32h192c18 0 32 14 32 32v224h224c18 0 32 14 32 32zM1856 1344v-1152c0 -35 -29 -64 -64 -64h-192
c0 -141 -114 -256 -256 -256c-141 0 -256 115 -256 256h-384c0 -141 -114 -256 -256 -256s-256 115 -256 256h-128c-35 0 -64 29 -64 64s29 64 64 64v416c0 35 20 84 45 109l198 198c25 25 74 45 109 45h160v320c0 35 29 64 64 64h1152c35 0 64 -29 64 -64z" />
    <glyph glyph-name="cc-visa" unicode="&#xf1f0;" horiz-adv-x="2304" 
d="M1975 546h-138s14 37 66 179c-1 -1 14 37 22 61l12 -55c31 -153 38 -185 38 -185zM531 611l-58 295c-8 41 -39 54 -75 54h-268l-2 -13c184 -47 335 -147 403 -336zM710 960l-162 -438l-17 89c-35 93 -120 179 -216 218l135 -510h175l261 641h-176zM849 318h166l104 642
h-166zM1617 944c-33 13 -85 27 -149 27c-164 0 -279 -87 -280 -212c-1 -92 82 -143 145 -174c65 -31 86 -52 86 -80c0 -43 -52 -62 -99 -62c-67 0 -103 8 -156 33l-22 11l-23 -144c39 -18 110 -34 185 -34c174 -1 287 86 289 219c0 73 -45 128 -140 174
c-58 29 -93 50 -93 80c0 27 30 55 95 55c54 1 94 -10 124 -24l15 -8zM2042 960h-128c-40 0 -70 -12 -87 -54l-246 -588h174c28 79 35 96 35 96h212s5 -22 20 -96h154zM2304 1280v-1280c0 -70 -58 -128 -128 -128h-2048c-70 0 -128 58 -128 128v1280c0 70 58 128 128 128
h2048c70 0 128 -58 128 -128z" />
    <glyph glyph-name="superscript" unicode="&#xf12b;" horiz-adv-x="1529" 
d="M892 167v-167h-248l-159 252l-24 42c-6 7 -9 14 -11 21h-3c-2 -7 -6 -14 -9 -21c-6 -12 -15 -28 -25 -44l-155 -250h-258v167h128l197 291l-185 272h-137v168h276l139 -228c9 -14 16 -29 23 -42c6 -7 9 -14 11 -21h3c2 7 6 14 11 21l25 42l140 228h257v-168h-125
l-184 -267l204 -296h109zM1529 846v-206h-514l-3 27c-2 14 -4 33 -4 46c0 273 350 296 350 441c0 52 -47 87 -100 87c-38 0 -72 -18 -97 -39c-13 -11 -25 -25 -36 -38l-105 92c18 25 38 46 63 66c42 33 103 65 188 65c145 0 246 -85 246 -218c0 -240 -332 -260 -346 -403
h232v80h126z" />
    </font>
</defs>
</svg>
