<?xml version="1.0" standalone="no"?>
<!DOCTYPE svg PUBLIC "-//W3C//DTD SVG 1.1//EN" "http://www.w3.org/Graphics/SVG/1.1/DTD/svg11.dtd" >
<svg>
<metadata>
Created by FontForge 20090914 at Tue Aug 21 23:38:12 2012
 By www-data
_null_name_substitute_
</metadata>
<defs>
<font id="FontAwesome-Regular" horiz-adv-x="1843" >
  <font-face 
    font-family="FontAwesome"
    font-weight="400"
    font-stretch="normal"
    units-per-em="2048"
    panose-1="0 0 5 0 0 0 0 0 0 0"
    ascent="1536"
    descent="-512"
    bbox="-2.00829 -430 1918.59 1569"
    underline-thickness="50"
    underline-position="-103"
    unicode-range="U+000D-U+F205"
  />
<missing-glyph horiz-adv-x="1024" 
d="M129 0h768v1536h-768v-1536zM256 129v1280h512v-1280h-512z" />
    <glyph glyph-name=".notdef" horiz-adv-x="1024" 
d="M129 0h768v1536h-768v-1536zM256 129v1280h512v-1280h-512z" />
    <glyph glyph-name="AE" unicode="&#xc6;" horiz-adv-x="2048" 
 />
    <glyph glyph-name="Iacute" unicode="&#xcd;" horiz-adv-x="2048" 
 />
    <glyph glyph-name="o" unicode="o" horiz-adv-x="1591" 
 />
    <glyph glyph-name="guilsinglright" unicode="&#x203a;" horiz-adv-x="2048" 
 />
    <glyph glyph-name="uni2001" unicode="&#x2001;" horiz-adv-x="1569" 
 />
    <glyph glyph-name="uni2003" unicode="&#x2003;" horiz-adv-x="1569" 
 />
    <glyph glyph-name="uni2000" unicode="&#x2000;" horiz-adv-x="784" 
 />
    <glyph glyph-name="enspace" unicode="&#x2002;" horiz-adv-x="784" 
 />
    <glyph glyph-name="uni2007" unicode="&#x2007;" horiz-adv-x="261" 
 />
    <glyph glyph-name="uni2005" unicode="&#x2005;" horiz-adv-x="392" 
 />
    <glyph glyph-name="uni200A" unicode="&#x200a;" horiz-adv-x="87" 
 />
    <glyph glyph-name="uni202F" unicode="&#x202f;" horiz-adv-x="313" 
 />
    <glyph glyph-name="uni2008" unicode="&#x2008;" horiz-adv-x="196" 
 />
    <glyph glyph-name="uni2006" unicode="&#x2006;" horiz-adv-x="261" 
 />
    <glyph glyph-name="space" unicode=" " horiz-adv-x="512" 
 />
    <glyph glyph-name="uni00A0" unicode="&#xa0;" horiz-adv-x="512" 
 />
    <glyph glyph-name="uni2009" unicode="&#x2009;" horiz-adv-x="313" 
 />
    <glyph glyph-name="uni2004" unicode="&#x2004;" horiz-adv-x="523" 
 />
    <glyph glyph-name="CR" unicode="&#xd;" horiz-adv-x="512" 
 />
    <glyph glyph-name="infinity" unicode="&#x221e;" horiz-adv-x="2048" 
 />
    <glyph glyph-name="copyright" unicode="&#xa9;" horiz-adv-x="2048" 
 />
    <glyph glyph-name="registered" unicode="&#xae;" horiz-adv-x="2048" 
 />
    <glyph glyph-name="trademark" unicode="&#x2122;" horiz-adv-x="2048" 
 />
    <glyph glyph-name="acute" unicode="&#xb4;" horiz-adv-x="2048" 
 />
    <glyph glyph-name="dieresis" unicode="&#xa8;" horiz-adv-x="2048" 
 />
    <glyph glyph-name="uni0000" horiz-adv-x="0" 
 />
    <glyph glyph-name="uni0000" horiz-adv-x="0" 
 />
    <glyph glyph-name="uni205F" unicode="&#x205f;" horiz-adv-x="392" 
 />
    <glyph glyph-name="uniE000" unicode="&#xe000;" horiz-adv-x="1024" 
 />
    <glyph glyph-name="uniF000" unicode="&#xf000;" horiz-adv-x="1536" 
d="M1458 1536h-1382c-33 0 -57 -16 -70 -47s-8 -59 17 -84l610 -610v-641h-250c-41 0 -76 -35 -76 -76c0 -44 35 -78 76 -78h768c44 0 78 34 78 78c0 41 -34 76 -78 76h-248v641l610 610c49 49 13 131 -55 131z" />
    <glyph glyph-name="uniF001" unicode="&#xf001;" horiz-adv-x="1488" 
d="M406 1221v-779c-33 9 -68 15 -101 15c-71 0 -145 -23 -205 -64s-100 -104 -100 -180c0 -79 40 -140 100 -180c60 -41 134 -64 205 -64c68 0 145 23 204 64c59 40 99 101 99 180v815l678 195v-537c-32 8 -66 14 -102 14c-68 0 -145 -22 -204 -63s-99 -104 -99 -180
c0 -80 40 -140 99 -180c59 -41 136 -64 204 -64s144 23 205 64c60 40 100 101 100 180v1028c0 47 -35 82 -82 82c-5 0 -30 -6 -74 -18l-375 -107l-215 -62l-178 -53s-85 -25 -100 -29c-36 -11 -59 -41 -59 -77z" />
    <glyph glyph-name="uniF002" unicode="&#xf002;" horiz-adv-x="1597" 
d="M1579 176l-358 359c71 108 110 235 110 366c0 183 -73 349 -195 470s-287 196 -470 196c-184 0 -348 -75 -470 -196s-196 -287 -196 -470s74 -349 196 -470s287 -195 470 -195c131 0 257 39 366 110l359 -358c12 -13 28 -19 47 -19c21 0 60 28 96 64c36 35 63 75 63 96
c0 19 -6 35 -18 47zM266 901c0 109 46 209 118 282c72 72 173 117 282 117s209 -45 281 -117c72 -73 118 -173 118 -282c0 -112 -46 -211 -118 -282c-72 -72 -172 -117 -281 -117s-210 45 -282 117c-72 71 -118 170 -118 282zM414 901c0 -27 20 -49 51 -49c27 0 49 22 49 49
c0 85 68 152 152 152c27 0 49 22 49 49c0 29 -22 51 -49 51c-71 0 -132 -27 -178 -74s-74 -110 -74 -178z" />
    <glyph glyph-name="uniF003" unicode="&#xf003;" 
d="M0 1421v-1306c0 -63 52 -115 115 -115h1614c63 0 114 52 114 115v1306c0 63 -51 115 -114 115h-1614c-63 0 -115 -52 -115 -115zM154 1317v65h1536v-65c0 -41 -22 -89 -50 -132c-29 -43 -65 -82 -98 -106l-399 -303l-48 -37c-19 -15 -38 -29 -57 -42
c-40 -28 -81 -50 -114 -50h-4c-33 0 -74 22 -114 50c-40 27 -79 58 -106 79l-199 153l-200 150c-33 25 -69 63 -97 106c-29 43 -50 91 -50 132zM154 154v852c20 -21 39 -38 57 -50c141 -105 285 -211 424 -323c81 -65 176 -139 285 -139c115 0 207 74 288 139l212 164
l212 159c18 13 37 29 58 50v-852h-1536z" />
    <glyph glyph-name="uniF004" unicode="&#xf004;" horiz-adv-x="1802" 
d="M956 -8l615 612c60 60 118 134 162 215c43 80 69 166 69 254c0 151 -46 276 -130 361c-85 84 -208 133 -359 133c-79 0 -154 -27 -224 -67s-136 -94 -188 -146c-55 52 -118 106 -187 146s-148 67 -227 67c-149 0 -271 -49 -355 -133c-85 -85 -132 -210 -132 -361
c0 -87 27 -174 69 -253c42 -80 100 -154 160 -214l615 -614c17 -15 36 -23 57 -23s40 8 55 23z" />
    <glyph glyph-name="uniF005" unicode="&#xf005;" horiz-adv-x="1675" 
d="M27 899l364 -356l-86 -504c-11 -60 25 -88 80 -57l453 237l452 -237c55 -31 91 -3 80 57l-86 504l367 356c43 44 29 86 -31 94l-506 74l-227 459c-14 27 -31 41 -50 41s-36 -14 -49 -41l-227 -459l-506 -74c-60 -8 -75 -50 -28 -94z" />
    <glyph glyph-name="uniF006" unicode="&#xf006;" horiz-adv-x="1675" 
d="M561 1067l-506 -74c-24 -5 -55 -14 -55 -45c0 -19 14 -36 27 -49l364 -356l-86 -504c0 -3 0 -6 -1 -9c-1 -4 -1 -8 -1 -12c0 -13 3 -25 10 -34c13 -20 48 -18 72 -2l453 237l452 -237c12 -9 26 -13 41 -13c31 0 41 22 41 49c0 5 0 9 -1 12s-1 6 -1 9l-86 504l367 356
c13 13 24 30 24 49c0 31 -31 40 -55 45l-506 74l-227 459c-8 19 -25 41 -49 41c-21 0 -42 -22 -50 -41zM289 866l379 56l170 344l170 -344l378 -56l-274 -268l66 -377l-340 178l-340 -178l65 377z" />
    <glyph glyph-name="uniF007" unicode="&#xf007;" horiz-adv-x="1566" 
d="M0 444v-387c18 -9 33 -21 45 -35c12 -15 30 -22 53 -22h1370c6 0 13 2 22 7c17 9 38 23 55 36c8 7 15 11 22 14v387c0 25 -6 52 -18 82c-25 60 -67 118 -114 161c-48 43 -76 46 -139 56s-138 19 -205 27c-33 4 -59 7 -77 10c123 79 196 214 196 359
c0 117 -47 224 -125 302s-186 126 -303 126s-224 -48 -300 -126c-77 -78 -126 -185 -126 -302c0 -148 74 -280 197 -359c-18 -3 -44 -6 -77 -10s-68 -8 -104 -13c-73 -9 -145 -20 -169 -28c-47 -13 -97 -62 -136 -117c-40 -55 -67 -119 -67 -168z" />
    <glyph glyph-name="uniF008" unicode="&#xf008;" 
d="M0 1421v-1306c0 -63 52 -115 115 -115h1614c63 0 114 52 114 115v1306c0 63 -51 115 -114 115h-1614c-63 0 -115 -52 -115 -115zM115 1229v153c0 23 18 39 39 39h153c23 0 39 -18 39 -39v-153c0 -23 -18 -39 -39 -39h-153c-23 0 -39 18 -39 39zM461 870v512
c0 23 18 39 39 39h843c23 0 39 -18 39 -39v-512c0 -21 -18 -39 -39 -39h-843c-23 0 -39 18 -39 39zM1497 1229v153c0 23 18 39 39 39h154c21 0 39 -18 39 -39v-153c0 -23 -18 -39 -39 -39h-154c-21 0 -39 18 -39 39zM115 870v154c0 21 18 39 39 39h153c23 0 39 -18 39 -39
v-154c0 -21 -18 -39 -39 -39h-153c-23 0 -39 18 -39 39zM1497 870v154c0 21 18 39 39 39h154c21 0 39 -18 39 -39v-154c0 -21 -18 -39 -39 -39h-154c-21 0 -39 18 -39 39zM115 512v154c0 21 18 39 39 39h153c23 0 39 -18 39 -39v-154c0 -21 -18 -39 -39 -39h-153
c-23 0 -39 18 -39 39zM461 154v512c0 21 18 39 39 39h843c23 0 39 -18 39 -39v-512c0 -23 -18 -39 -39 -39h-843c-23 0 -39 18 -39 39zM1497 512v154c0 21 18 39 39 39h154c21 0 39 -18 39 -39v-154c0 -21 -18 -39 -39 -39h-154c-21 0 -39 18 -39 39zM115 154v153
c0 23 18 39 39 39h153c23 0 39 -18 39 -39v-153c0 -23 -18 -39 -39 -39h-153c-23 0 -39 18 -39 39zM1497 154v153c0 23 18 39 39 39h154c21 0 39 -18 39 -39v-153c0 -23 -18 -39 -39 -39h-154c-21 0 -39 18 -39 39z" />
    <glyph glyph-name="uniF009" unicode="&#xf009;" 
d="M0 1460v-538c0 -44 34 -76 78 -76h690c44 0 78 32 78 76v538c0 41 -34 76 -78 76h-690c-44 0 -78 -35 -78 -76zM999 1460v-538c0 -44 32 -76 76 -76h692c41 0 76 32 76 76v538c0 41 -35 76 -76 76h-692c-44 0 -76 -35 -76 -76zM0 614v-536c0 -44 34 -78 78 -78h690
c44 0 78 34 78 78v536c0 44 -34 78 -78 78h-690c-44 0 -78 -34 -78 -78zM999 614v-536c0 -44 32 -78 76 -78h692c41 0 76 34 76 78v536c0 44 -35 78 -76 78h-692c-44 0 -76 -34 -76 -78z" />
    <glyph glyph-name="uniF00A" unicode="&#xf00a;" 
d="M0 1460v-272c0 -44 34 -78 78 -78h358c41 0 76 34 76 78v272c0 41 -35 76 -76 76h-358c-44 0 -78 -35 -78 -76zM666 1460v-272c0 -44 33 -78 77 -78h359c41 0 76 34 76 78v272c0 41 -35 76 -76 76h-359c-43 0 -77 -35 -77 -76zM1331 1460v-272c0 -44 34 -78 78 -78h358
c41 0 76 34 76 78v272c0 41 -35 76 -76 76h-358c-44 0 -78 -35 -78 -76zM0 881v-226c0 -43 34 -77 78 -77h358c41 0 76 33 76 77v226c0 43 -35 75 -76 75h-358c-44 0 -78 -31 -78 -75zM666 881v-226c0 -43 33 -77 77 -77h359c41 0 76 33 76 77v226c0 43 -35 75 -76 75h-359
c-43 0 -77 -31 -77 -75zM1331 881v-226c0 -43 34 -77 78 -77h358c41 0 76 33 76 77v226c0 43 -35 75 -76 75h-358c-44 0 -78 -31 -78 -75zM0 348v-270c0 -44 34 -78 78 -78h358c41 0 76 34 76 78v270c0 44 -35 76 -76 76h-358c-44 0 -78 -32 -78 -76zM666 348v-270
c0 -44 33 -78 77 -78h359c41 0 76 34 76 78v270c0 44 -35 76 -76 76h-359c-43 0 -77 -32 -77 -76zM1331 348v-270c0 -44 34 -78 78 -78h358c41 0 76 34 76 78v270c0 44 -35 76 -76 76h-358c-44 0 -78 -32 -78 -76z" />
    <glyph glyph-name="uniF00B" unicode="&#xf00b;" 
d="M0 1460v-272c0 -44 34 -78 78 -78h297c41 0 76 34 76 78v272c0 41 -35 76 -76 76h-297c-44 0 -78 -35 -78 -76zM604 1460v-272c0 -44 34 -78 78 -78h1085c41 0 76 34 76 78v272c0 41 -35 76 -76 76h-1085c-44 0 -78 -35 -78 -76zM0 881v-226c0 -43 34 -77 78 -77h297
c41 0 76 33 76 77v226c0 43 -35 75 -76 75h-297c-44 0 -78 -31 -78 -75zM604 881v-226c0 -43 34 -77 78 -77h1085c41 0 76 33 76 77v226c0 43 -35 75 -76 75h-1085c-44 0 -78 -31 -78 -75zM0 348v-270c0 -44 34 -78 78 -78h297c41 0 76 34 76 78v270c0 44 -35 76 -76 76
h-297c-44 0 -78 -32 -78 -76zM604 348v-270c0 -44 34 -78 78 -78h1085c41 0 76 34 76 78v270c0 44 -35 76 -76 76h-1085c-44 0 -78 -32 -78 -76z" />
    <glyph glyph-name="uniF00C" unicode="&#xf00c;" 
d="M23 676l526 -529c29 -29 90 -55 137 -55h88c44 0 104 24 135 55l910 910c29 29 31 81 0 112l-174 174c-15 15 -34 23 -56 23c-23 0 -42 -8 -57 -23l-746 -745c-15 -15 -33 -23 -55 -23c-23 0 -42 8 -57 23l-365 365c-29 29 -81 31 -112 0l-174 -175
c-15 -15 -23 -33 -23 -55c0 -23 8 -42 23 -57z" />
    <glyph glyph-name="uniF00D" unicode="&#xf00d;" horiz-adv-x="1536" 
d="M29 125l100 -100c19 -19 42 -29 67 -29s47 10 66 29l506 505l504 -505c19 -19 41 -29 67 -29s49 10 68 29l100 102c19 19 29 42 29 67s-10 47 -29 66l-508 500l508 510c19 19 29 41 29 67s-10 49 -29 68l-100 100c-19 19 -42 29 -67 29c-26 0 -49 -10 -68 -29l-504 -504
l-504 504c-19 19 -41 29 -67 29s-49 -10 -68 -29l-100 -100c-19 -19 -29 -42 -29 -67c0 -26 10 -49 29 -68l508 -500l-508 -510c-19 -19 -29 -42 -29 -67c0 -26 10 -49 29 -68z" />
    <glyph glyph-name="uniF00E" unicode="&#xf00e;" horiz-adv-x="1597" 
d="M1579 176l-358 359c71 103 110 230 110 366c0 183 -74 349 -194 470s-288 196 -471 196c-184 0 -348 -75 -470 -196s-196 -287 -196 -470c0 -185 74 -351 196 -471s287 -194 470 -194c136 0 262 39 366 110l359 -358c24 -25 67 -24 94 0l94 94c12 13 18 29 18 48
s-6 34 -18 46zM266 901c0 109 46 209 118 282c72 72 173 117 282 117s211 -45 282 -117c71 -73 117 -173 117 -282c0 -112 -46 -211 -117 -282c-71 -72 -173 -117 -282 -117s-210 45 -282 117c-72 71 -118 170 -118 282zM399 934v-66c0 -19 14 -34 33 -34h168v-166
c0 -22 11 -33 33 -33h65c20 0 35 14 35 33v166h166c19 0 33 15 33 34v66c0 22 -11 33 -33 33h-166v168c0 19 -16 32 -35 32h-65c-22 1 -33 -10 -33 -32v-168h-168c-22 0 -33 -11 -33 -33z" />
    <glyph glyph-name="uniF010" unicode="&#xf010;" horiz-adv-x="1597" 
d="M1579 176l-358 359c71 103 110 230 110 366c0 183 -74 349 -194 470s-288 196 -471 196c-184 0 -348 -75 -470 -196s-196 -287 -196 -470c0 -185 74 -351 196 -471s287 -194 470 -194c136 0 262 39 366 110l359 -358c24 -25 67 -24 94 0l94 94c12 13 18 29 18 48
s-6 34 -18 46zM266 901c0 109 46 209 118 282c72 72 173 117 282 117s211 -45 282 -117c71 -73 117 -173 117 -282c0 -112 -46 -211 -117 -282c-71 -72 -173 -117 -282 -117s-210 45 -282 117c-72 71 -118 170 -118 282zM399 934v-66c0 -19 14 -34 33 -34h467
c19 0 33 15 33 34v66c0 22 -11 33 -33 33h-467c-22 0 -33 -11 -33 -33z" />
    <glyph glyph-name="uniF011" unicode="&#xf011;" horiz-adv-x="1488" 
d="M627 1497v-704c0 -23 18 -39 39 -39h157c23 0 39 18 39 39v704c0 21 -18 39 -39 39h-157c-23 0 -39 -18 -39 -39zM469 1188l-90 131c-9 16 -37 23 -53 10c-205 -139 -326 -368 -326 -616c0 -205 83 -390 218 -525c135 -136 320 -219 525 -219s392 83 528 219
c135 135 218 320 218 525c0 248 -121 477 -326 616c-19 11 -42 6 -55 -10l-88 -131c-13 -17 -9 -40 10 -53c140 -96 223 -250 223 -422c0 -140 -56 -268 -149 -359c-93 -92 -222 -149 -361 -149s-267 57 -359 149c-92 91 -148 220 -148 359c0 172 82 326 223 422
c16 13 23 37 10 53z" />
    <glyph glyph-name="uniF012" unicode="&#xf012;" 
d="M1575 1497v-1458c0 -26 13 -39 39 -39h190c26 0 39 13 39 39v1458c0 26 -13 39 -39 39h-190c-26 0 -39 -13 -39 -39zM1182 1034v-995c0 -21 16 -39 37 -39h192c21 0 39 18 39 39v995c0 23 -18 39 -39 39h-192c-23 0 -37 -18 -37 -39zM786 715v-676c0 -21 18 -39 39 -39
h193c21 0 39 18 39 39v676c0 21 -18 39 -39 39h-193c-21 0 -39 -18 -39 -39zM393 473v-434c0 -21 18 -39 39 -39h193c21 0 37 18 37 39v434c0 21 -16 39 -37 39h-193c-21 0 -39 -18 -39 -39zM0 299v-260c0 -26 13 -39 39 -39h192c23 0 37 18 37 39v260c0 21 -16 39 -37 39
h-192c-21 0 -39 -18 -39 -39z" />
    <glyph glyph-name="uniF013" unicode="&#xf013;" horiz-adv-x="1593" 
d="M0 887v-236c0 -9 5 -15 16 -18c31 -11 65 -18 101 -20c35 -2 70 -6 104 -13c12 -45 29 -86 51 -123l-26 -34c-28 -36 -59 -77 -80 -109c-11 -17 -16 -26 -16 -27c0 -5 9 -18 28 -38c36 -41 84 -92 125 -128c21 -19 33 -28 37 -28l12 4c26 22 52 43 79 63
c27 19 54 39 81 60c37 -21 76 -38 117 -50c4 -33 8 -67 11 -103s10 -70 19 -103c3 -11 10 -17 19 -17h237c9 0 16 10 21 31c11 41 19 96 24 146c2 25 4 41 5 49c40 11 79 26 118 47c5 -3 16 -11 34 -24l110 -84c16 -13 25 -19 26 -19c6 0 20 9 41 28c42 36 92 87 129 128
c18 20 27 33 27 38l-6 15c-44 50 -84 102 -121 157c22 40 38 79 47 117c8 1 24 3 49 5c49 4 105 12 145 25c19 6 29 13 29 21v236c0 9 -5 15 -16 18c-31 11 -65 18 -101 20c-37 2 -71 6 -104 13c-12 45 -29 86 -51 123l25 33l81 109c11 16 17 25 17 28c0 5 -9 18 -27 39
c-37 40 -86 91 -127 128c-21 18 -33 27 -37 27s-14 -6 -29 -17l-109 -83l-34 -27c-37 23 -75 36 -116 47c-6 35 -11 70 -14 106s-9 70 -17 103c-3 10 -10 15 -19 15h-237c-8 0 -15 -10 -21 -31c-7 -21 -12 -44 -16 -69c-8 -51 -12 -108 -12 -124c-41 -13 -80 -26 -119 -47
c-4 3 -15 11 -32 25l-57 43s-38 28 -54 41c-17 12 -26 18 -27 18c-5 0 -19 -9 -40 -27c-43 -37 -92 -88 -129 -128c-19 -21 -28 -34 -28 -39l7 -15c43 -50 83 -102 120 -157c-21 -37 -37 -76 -49 -117c-8 -1 -24 -3 -48 -5c-48 -4 -102 -12 -142 -24c-21 -7 -31 -14 -31 -22
zM557 768c0 65 26 124 70 168c43 44 105 70 170 70s127 -26 169 -70s70 -103 70 -168s-28 -126 -70 -170s-104 -72 -169 -72s-127 28 -170 72c-44 44 -70 105 -70 170z" />
    <glyph glyph-name="uniF014" unicode="&#xf014;" horiz-adv-x="1304" 
d="M1305 1141v141c-17 9 -41 17 -72 24c-63 12 -135 20 -202 24c-33 2 -60 4 -79 5c1 9 2 17 2 25v24c0 91 -37 136 -94 160c-57 23 -134 23 -207 23c-97 0 -177 -5 -230 -35s-82 -88 -71 -197c-19 -1 -45 -3 -78 -5c-34 -2 -68 -5 -103 -9c-69 -8 -136 -20 -169 -39
c-1 -12 -2 -24 -2 -36v-36v-34c0 -13 1 -24 2 -35c49 -28 174 -43 307 -51c132 -9 271 -9 344 -9c75 0 211 0 344 9c132 8 259 24 308 51zM504 1384v15c47 13 100 12 149 12c47 0 101 1 148 -12v-15c1 -7 1 -14 0 -21c-1 -8 -2 -16 -2 -24c-98 1 -195 1 -291 0
c-3 15 -4 32 -4 45zM133 991v-837c0 -85 70 -154 154 -154h731c84 0 151 70 151 154v837c-172 -21 -344 -23 -516 -26h-32c-164 0 -324 5 -488 26zM303 199v614c0 21 16 39 37 39h39c21 0 39 -18 39 -39v-614c0 -23 -18 -37 -39 -37h-39c-21 0 -37 16 -37 37zM596 199v614
c0 21 16 39 37 39h39c21 0 39 -18 39 -39v-614c0 -23 -18 -37 -39 -37h-39c-23 0 -37 16 -37 37zM887 199v614c0 21 18 39 39 39h39c21 0 39 -18 39 -39v-614c0 -23 -18 -37 -39 -37h-39c-23 0 -39 16 -39 37z" />
    <glyph glyph-name="uniF015" unicode="&#xf015;" horiz-adv-x="1880" 
d="M8 782l45 -53c7 -9 17 -14 29 -14h65c11 0 20 3 25 8l743 608c17 13 33 13 50 0l743 -608c6 -5 14 -8 25 -8h65c13 0 22 5 29 14l45 53c13 17 10 41 -6 54l-328 268v348c0 21 -16 39 -37 39h-223c-21 0 -39 -18 -39 -39v-102l-240 196c-35 28 -82 27 -118 0l-867 -710
c-16 -15 -19 -38 -6 -54zM266 698v-622c0 -44 32 -76 76 -76h422v498h352v-498h422c44 0 76 32 76 76v622l-674 553z" />
    <glyph glyph-name="uniF016" unicode="&#xf016;" horiz-adv-x="1228" 
d="M0 1460v-1382c0 -44 34 -78 78 -78h1075c41 0 76 34 76 78v921c0 44 -24 100 -55 131l-351 351c-29 29 -87 55 -131 55h-614c-44 0 -78 -35 -78 -76zM154 154v1228h387v-458c0 -44 34 -78 75 -78h459v-692h-921zM694 999v383c3 -1 7 -3 12 -4s8 -3 9 -6l350 -348
c3 -3 10 -20 10 -25h-381zM268 596h693v115h-693v-115zM268 326h693v116h-693v-116z" />
    <glyph glyph-name="uniF017" unicode="&#xf017;" horiz-adv-x="1597" 
d="M0 768c0 -221 89 -421 234 -565c144 -145 344 -234 565 -234s420 89 565 234c145 144 233 344 233 565s-88 421 -233 566c-145 144 -344 233 -565 233s-421 -89 -565 -233c-145 -145 -234 -345 -234 -566zM240 768c0 156 63 294 164 395c100 101 239 164 395 164
c155 0 294 -63 395 -164s164 -239 164 -395s-63 -294 -164 -395s-239 -164 -395 -164s-295 63 -395 164c-101 101 -164 239 -164 395zM635 1073v-465c0 -44 36 -80 80 -80h360c44 0 80 36 80 80v80c0 44 -36 80 -80 80h-201v305c0 44 -32 80 -79 80h-80
c-44 0 -80 -36 -80 -80z" />
    <glyph glyph-name="uniF018" unicode="&#xf018;" 
d="M596 1501l-594 -1466c-8 -20 4 -35 25 -35h739l27 512h258l26 -512h740c21 0 32 16 24 35l-594 1466c-8 20 -32 35 -53 35h-195l9 -170h-172l8 170h-195c-21 0 -45 -16 -53 -35zM807 797l20 413h189l20 -413h-229z" />
    <glyph glyph-name="uniF019" unicode="&#xf019;" 
d="M362 905l504 -506c31 -29 80 -31 111 0l504 506c29 31 20 56 -21 56h-307v499c0 41 -34 76 -78 76h-307c-44 0 -76 -35 -76 -76v-499h-307c-44 0 -54 -25 -23 -56zM0 653v-614c0 -26 13 -39 39 -39h1765c26 0 39 13 39 39v614c0 23 -18 39 -39 39h-229
c-21 0 -39 -18 -39 -39v-346h-1229v346c0 23 -18 39 -39 39h-229c-21 0 -39 -18 -39 -39z" />
    <glyph glyph-name="uniF01A" unicode="&#xf01a;" horiz-adv-x="1597" 
d="M0 768c0 -221 89 -421 234 -565c144 -145 344 -234 565 -234s420 89 565 234c145 144 233 344 233 565s-88 421 -233 566c-145 144 -344 233 -565 233s-421 -89 -565 -233c-145 -145 -234 -345 -234 -566zM240 768c0 156 63 294 164 395c100 101 239 164 395 164
c155 0 294 -63 395 -164s164 -239 164 -395s-63 -294 -164 -395s-239 -164 -395 -164s-295 63 -395 164c-101 101 -164 239 -164 395zM659 768h-208c-18 0 -30 -8 -37 -25s-3 -31 10 -43l346 -346c10 -7 20 -10 29 -10s19 3 28 10l347 346c27 24 9 68 -27 68h-209v358
c0 23 -18 41 -39 41h-201c-21 0 -39 -20 -39 -41v-358z" />
    <glyph glyph-name="uniF01B" unicode="&#xf01b;" horiz-adv-x="1597" 
d="M0 768c0 -221 89 -421 234 -565c144 -145 344 -234 565 -234s420 89 565 234c145 144 233 344 233 565s-88 421 -233 566c-145 144 -344 233 -565 233s-421 -89 -565 -233c-145 -145 -234 -345 -234 -566zM240 768c0 156 63 294 164 395c100 101 239 164 395 164
s294 -63 395 -164s164 -239 164 -395s-63 -294 -164 -395s-239 -164 -395 -164s-295 63 -395 164c-101 101 -164 239 -164 395zM770 1182l-346 -346c-13 -12 -17 -26 -10 -43s19 -25 37 -25h208v-360c0 -23 18 -39 39 -39h201c21 0 39 18 39 39v360h209c36 0 54 44 27 68
l-347 346c-9 7 -19 10 -28 10c-10 0 -20 -3 -29 -10z" />
    <glyph glyph-name="uniF01C" unicode="&#xf01c;" 
d="M0 655v-577c0 -44 34 -78 78 -78h1689c41 0 76 34 76 78v577c0 44 -15 109 -31 148l-284 663c-16 39 -66 70 -107 70h-999c-41 0 -91 -31 -107 -70l-284 -663c-17 -39 -31 -104 -31 -148zM625 694h-387c1 3 2 6 2 10c0 3 1 6 2 7l256 596h848l256 -594c1 -3 2 -6 2 -9
c0 -4 1 -7 2 -10h-367l-117 -231h-383z" />
    <glyph glyph-name="uniF01D" unicode="&#xf01d;" horiz-adv-x="1597" 
d="M0 768c0 -221 89 -421 234 -565c144 -145 344 -234 565 -234s420 89 565 234c145 144 233 344 233 565s-88 421 -233 566c-145 144 -344 233 -565 233s-421 -89 -565 -233c-145 -145 -234 -345 -234 -566zM240 768c0 156 63 294 164 395c100 101 239 164 395 164
c155 0 294 -63 395 -164s164 -239 164 -395s-63 -294 -164 -395s-239 -164 -395 -164s-295 63 -395 164c-101 101 -164 239 -164 395zM582 1081v-628c0 -11 5 -20 16 -27c5 -3 11 -4 16 -4s10 1 15 4l545 315c11 5 16 14 16 27c0 14 -5 23 -16 27l-545 315c-7 5 -18 5 -31 0
c-11 -7 -16 -17 -16 -29z" />
    <glyph glyph-name="uniF01E" unicode="&#xf01e;" horiz-adv-x="1591" 
d="M1470 1540l-161 -162c-145 123 -322 189 -510 189c-221 0 -421 -89 -565 -233c-145 -145 -234 -345 -234 -566s89 -421 234 -565c144 -145 344 -234 565 -234c199 0 385 74 527 198s238 299 265 495c3 21 -14 40 -35 45l-157 20c-23 3 -45 -14 -45 -35
c-20 -136 -88 -258 -187 -344c-100 -86 -229 -139 -368 -139c-156 0 -295 63 -395 164c-101 101 -164 239 -164 395s63 294 164 395c100 101 239 164 395 164c125 0 244 -43 340 -119l-160 -159c-47 -47 -28 -82 35 -82h463c21 0 40 9 53 22c15 15 22 33 22 55v463
c0 63 -35 80 -82 33z" />
    <glyph glyph-name="uniF021" unicode="&#xf021;" horiz-adv-x="1916" 
d="M1843 1282l-205 -100c-97 161 -244 279 -421 342c-211 71 -428 49 -611 -41s-332 -251 -403 -459c-8 -21 3 -43 24 -51l152 -51c21 -5 43 3 51 24c49 148 152 259 281 322c128 63 280 77 428 28c117 -40 214 -117 282 -221l-202 -100c-55 -31 -54 -67 6 -88l438 -150
c40 -11 85 5 98 49l150 439c21 60 -11 88 -68 57zM156 748l-150 -437c-21 -63 11 -90 68 -59l205 100c97 -161 241 -279 421 -342c208 -71 428 -48 611 42s332 247 403 458c8 21 -3 43 -24 51l-152 51c-21 5 -43 -3 -51 -24c-49 -148 -152 -259 -280 -322
c-129 -63 -281 -77 -429 -28c-120 40 -213 117 -284 221l202 100c57 31 56 67 -4 88l-438 150c-40 11 -85 -5 -98 -49z" />
    <glyph glyph-name="uniF022" unicode="&#xf022;" 
d="M0 1421v-1306c0 -63 52 -115 115 -115h1614c63 0 114 52 114 115v1306c0 63 -51 115 -114 115h-1614c-63 0 -115 -52 -115 -115zM154 154v1075h1536v-1075h-1536zM307 1036v-75c0 -26 13 -39 39 -39h154c21 0 39 18 39 39v75c0 23 -18 39 -39 39h-154
c-26 0 -39 -13 -39 -39zM692 1036v-75c0 -23 16 -39 37 -39h768c26 0 39 13 39 39v75c0 26 -13 39 -39 39h-768c-21 0 -37 -18 -37 -39zM307 729v-76c0 -26 13 -39 39 -39h154c21 0 39 18 39 39v76c0 21 -18 39 -39 39h-154c-26 0 -39 -13 -39 -39zM692 729v-76
c0 -21 16 -39 37 -39h768c26 0 39 13 39 39v76c0 26 -13 39 -39 39h-768c-21 0 -37 -18 -37 -39zM307 422v-76c0 -26 13 -39 39 -39h154c21 0 39 18 39 39v76c0 21 -18 39 -39 39h-154c-26 0 -39 -13 -39 -39zM692 422v-76c0 -21 16 -39 37 -39h768c26 0 39 13 39 39v76
c0 26 -13 39 -39 39h-768c-21 0 -37 -18 -37 -39z" />
    <glyph glyph-name="uniF023" unicode="&#xf023;" horiz-adv-x="1253" 
d="M0 743v-626c0 -63 54 -117 117 -117h1020c63 0 116 54 116 117v626c0 52 -30 95 -77 111v164c0 149 -61 288 -161 388s-237 161 -388 161s-289 -61 -388 -161c-100 -100 -161 -237 -161 -388v-164c-47 -16 -78 -59 -78 -111zM313 862v156c0 87 35 166 93 222
s133 91 221 91c84 0 164 -35 221 -91s92 -134 92 -222v-156h-627zM494 164l65 287c-39 21 -65 65 -65 112c0 73 60 135 133 135s133 -62 133 -135c0 -47 -27 -90 -66 -114l66 -285h-266z" />
    <glyph glyph-name="uniF024" unicode="&#xf024;" 
d="M231 39v1212c47 31 76 76 76 131c0 84 -69 154 -153 154c-85 0 -154 -70 -154 -154c0 -55 31 -100 78 -131v-1212c0 -21 16 -39 37 -39h78c21 0 38 18 38 39zM307 1161v-745c0 -44 29 -62 68 -41c69 38 132 67 189 88c112 41 194 60 267 63c91 0 164 -16 232 -40
c68 -25 131 -59 199 -95c42 -19 90 -30 145 -33c93 -5 220 12 371 103c37 21 65 73 65 114v748c0 44 -26 58 -65 37c-75 -45 -144 -74 -207 -87c-125 -26 -225 -22 -309 17c-69 36 -131 70 -199 95c-68 24 -141 40 -232 40c-36 -1 -77 -7 -124 -18
c-80 -19 -193 -58 -332 -131c-39 -21 -68 -71 -68 -115z" />
    <glyph glyph-name="uniF025" unicode="&#xf025;" horiz-adv-x="1916" 
d="M1812 317l27 60c52 112 78 229 78 350c0 232 -125 441 -306 593s-421 247 -653 247s-471 -95 -652 -247s-306 -362 -306 -591c0 -123 26 -240 78 -352l26 -60l175 -26c16 -71 56 -130 109 -173s125 -69 198 -69v-41c0 -21 20 -39 41 -39h80c21 0 38 18 38 39v719
c0 21 -17 41 -38 41h-80c-23 0 -41 -20 -41 -41v-39c-117 0 -220 -64 -275 -160l-39 7c-21 60 -32 125 -32 194c0 164 96 315 236 423c139 108 318 175 482 175c82 0 166 -16 251 -47c171 -63 315 -175 403 -319c87 -145 77 -306 33 -426l-39 -7c-55 96 -158 160 -275 160
v39c0 21 -20 41 -41 41h-80c-21 0 -39 -20 -39 -41v-719c0 -21 18 -39 39 -39h80c23 0 41 18 41 39v41c151 0 271 103 307 242z" />
    <glyph glyph-name="uniF026" unicode="&#xf026;" horiz-adv-x="905" 
d="M0 958v-380c0 -23 18 -39 39 -39h420l325 -326c67 -68 119 -47 119 49v1012c0 96 -54 117 -119 49l-325 -326h-420c-21 0 -39 -18 -39 -39z" />
    <glyph glyph-name="uniF027" unicode="&#xf027;" horiz-adv-x="1277" 
d="M0 958v-380c0 -23 18 -39 39 -39h420l325 -326c67 -68 119 -47 119 49v1012c0 96 -54 117 -119 49l-325 -326h-420c-21 0 -39 -18 -39 -39zM1065 358c13 -8 26 -12 39 -12c31 0 55 14 70 41c69 120 104 247 104 381c0 133 -35 260 -104 381c-23 39 -70 50 -109 29
s-52 -70 -31 -109c56 -97 84 -197 84 -301s-28 -204 -84 -301c-21 -39 -8 -88 31 -109z" />
    <glyph glyph-name="uniF028" unicode="&#xf028;" horiz-adv-x="1916" 
d="M1575 -18c13 -9 28 -13 45 -13c24 0 53 13 66 37c152 229 231 489 231 762s-78 532 -231 764c-24 36 -72 43 -111 22c-39 -24 -47 -73 -23 -112c135 -203 205 -434 205 -674s-72 -471 -205 -676c-24 -35 -16 -86 23 -110zM1321 170c12 -8 26 -12 43 -12c24 0 53 13 66 37
c111 176 167 367 167 573c0 205 -56 398 -165 573c-24 39 -72 49 -111 25c-39 -21 -49 -72 -25 -111c189 -300 188 -674 0 -974c-24 -39 -14 -90 25 -111zM0 958v-380c0 -23 18 -39 39 -39h420l325 -326c67 -68 119 -47 119 49v1012c0 96 -54 117 -119 49l-325 -326h-420
c-21 0 -39 -18 -39 -39zM1065 358c13 -8 26 -12 39 -12c31 0 55 14 70 41c69 120 104 247 104 381c0 133 -35 260 -104 381c-23 39 -70 50 -109 29s-52 -70 -31 -109c56 -97 84 -197 84 -301s-28 -204 -84 -301c-21 -39 -8 -88 31 -109z" />
    <glyph glyph-name="uniF029" unicode="&#xf029;" horiz-adv-x="1536" 
d="M0 838h698v698h-698v-698zM838 838h698v698h-698v-698zM139 977v420h420v-420h-420zM977 977v420h420v-420h-420zM279 1116h141v139h-141v-139zM1116 1116h139v139h-139v-139zM0 0h698v698h-698v-698zM838 0h139v418h139v-139h420v419h-139v-139h-142v139h-417v-698z
M139 139v420h420v-420h-420zM279 279h141v141h-141v-141zM1116 0h139v139h-139v-139zM1397 0h139v139h-139v-139z" />
    <glyph glyph-name="uniF02A" unicode="&#xf02a;" 
d="M0 0h154v1536h-154v-1536zM227 0h37v1536h-37v-1536zM356 0h117v1536h-117v-1536zM545 0h78v1536h-78v-1536zM715 0h76v1536h-76v-1536zM903 0h37v1536h-37v-1536zM1014 0h153v1536h-153v-1536zM1221 0h77v1536h-77v-1536zM1409 0h39v1536h-39v-1536zM1579 0h37v1536h-37
v-1536zM1690 0h153v1536h-153v-1536z" />
    <glyph glyph-name="uniF02B" unicode="&#xf02b;" horiz-adv-x="1488" 
d="M0 1415v-454c0 -69 39 -158 86 -207l670 -750c47 -49 125 -47 172 0l526 526c47 47 44 120 0 172l-672 748c-43 49 -139 86 -207 86h-454c-68 0 -121 -56 -121 -121zM197 1223c0 65 51 116 116 116s117 -51 117 -116s-52 -117 -117 -117s-116 52 -116 117z" />
    <glyph glyph-name="uniF02C" unicode="&#xf02c;" horiz-adv-x="1875" 
d="M0 1415v-454c0 -67 39 -155 86 -207l670 -746c43 -52 123 -47 170 0l526 524c47 47 44 121 0 170l-670 748c-21 24 -57 45 -96 62c-39 16 -78 24 -111 24h-454c-68 0 -121 -56 -121 -121zM965 1534h-174c65 -8 145 -37 186 -84l670 -748c45 -48 47 -123 0 -170l-514 -514
l12 -14c47 -49 125 -47 172 0l524 524c23 23 35 52 35 85s-12 62 -35 87l-670 748c-43 49 -138 86 -206 86zM195 1223c0 65 53 118 118 118c63 0 117 -53 117 -118c0 -63 -54 -117 -117 -117c-65 0 -118 54 -118 117z" />
    <glyph glyph-name="uniF02D" unicode="&#xf02d;" horiz-adv-x="1710" 
d="M569 1526l2 4c-33 9 -58 9 -77 -1c-38 -21 -60 -60 -76 -104c-17 -45 -36 -70 -55 -90c-20 -21 -25 -41 -17 -57c4 -9 5 -17 4 -25c-1 -13 -5 -28 -10 -45c-11 -34 -27 -72 -42 -102c-16 -30 -27 -45 -46 -59c-20 -14 -26 -33 -21 -56s2 -41 -6 -73
c-8 -33 -22 -68 -37 -100c-16 -32 -26 -50 -42 -65c-17 -16 -23 -35 -16 -54c3 -10 4 -20 1 -31c-13 -52 -47 -134 -78 -183c-8 -13 -16 -25 -25 -35c-18 -21 -19 -38 -14 -52s3 -35 0 -55c-1 -11 -3 -21 -4 -32c-15 -39 -15 -82 2 -127c20 -52 56 -98 103 -130
c47 -33 98 -54 153 -54h946c91 0 181 64 205 152l283 905c15 51 8 94 -19 129c-13 19 -34 34 -61 43c3 -20 1 -37 -4 -58l-309 -987c-12 -35 -56 -69 -95 -69h-946c-29 0 -58 11 -87 33c-59 43 -76 104 -60 131c11 13 26 14 39 14h893c89 0 180 67 204 151l283 906
c15 51 9 94 -18 129c-27 38 -67 57 -119 57h-780c-15 0 -33 -3 -54 -10zM569 1190l23 78c8 21 30 39 51 39h614c23 0 32 -18 27 -39l-22 -78c-9 -21 -31 -37 -52 -37h-614c-21 0 -32 16 -27 37zM500 961l22 75c5 23 30 39 51 39h615c21 0 31 -18 26 -39l-24 -75
c-5 -23 -28 -39 -49 -39h-615c-24 0 -33 13 -26 39z" />
    <glyph glyph-name="uniF02E" unicode="&#xf02e;" horiz-adv-x="1253" 
d="M0 1421v-1337c0 -63 52 -115 115 -115c31 0 58 11 80 33l432 432l432 -432c22 -22 49 -33 80 -33c63 0 114 52 114 115v1337c0 63 -51 115 -114 115h-1024c-63 0 -115 -52 -115 -115z" />
    <glyph glyph-name="uniF02F" unicode="&#xf02f;" 
d="M307 729h1229v307h-385c-63 0 -115 52 -115 117v383h-651c-44 0 -78 -35 -78 -76v-731zM1151 1153h385l-385 383v-383zM0 385v-346c0 -26 13 -39 39 -39h1765c26 0 39 13 39 39v346c0 63 -27 121 -67 162c-41 41 -99 67 -162 67h-1383c-63 0 -120 -26 -162 -67
s-69 -99 -69 -162zM268 193v38c0 23 18 39 39 39h1229c21 0 39 -18 39 -39v-38c0 -23 -18 -37 -39 -37h-1229c-21 0 -39 16 -39 37z" />
    <glyph glyph-name="uniF030" unicode="&#xf030;" 
d="M0 1190v-1075c0 -63 52 -115 115 -115h1614c63 0 114 52 114 115v1075c0 63 -51 117 -114 117h-367l-57 125c-25 57 -99 104 -162 104h-443c-63 0 -137 -47 -161 -104l-58 -125h-366c-63 0 -115 -54 -115 -117zM442 653c0 132 55 254 141 340s208 140 339 140
s253 -54 339 -140s140 -209 140 -340c0 -133 -54 -252 -140 -339c-86 -88 -208 -142 -339 -142s-253 54 -339 142c-86 87 -141 206 -141 339zM596 653c0 -89 36 -171 95 -231s140 -96 231 -96c89 0 171 36 230 96s95 140 95 231s-36 172 -95 231s-139 95 -230 95
s-172 -36 -231 -95s-95 -140 -95 -231z" />
    <glyph glyph-name="uniF031" unicode="&#xf031;" horiz-adv-x="1644" 
d="M0 0h20c55 0 107 3 164 14l49 9c92 -7 167 -13 224 -16s98 -5 121 -5c1 7 2 16 2 27v59c-47 5 -75 9 -84 12c-49 8 -84 18 -103 31c-11 11 -16 25 -16 43c-1 14 7 42 22 84l66 178s29 77 37 94h446l90 -227l47 -115c9 -21 10 -46 -6 -57c-7 -7 -29 -16 -67 -25l-129 -26
c-3 -25 -4 -51 -4 -78l57 2l199 10c13 1 31 2 53 2h80c55 0 115 -3 186 -8c68 -5 131 -8 188 -8c2 7 3 12 3 17v10c-1 12 -3 30 -7 55c-37 13 -69 24 -102 27c-64 8 -69 16 -102 81c-27 56 -49 106 -64 150l-65 164l-95 233c-37 96 -79 193 -123 297l-202 482l-11 20h-126
l-277 -725l-233 -614c-23 -39 -39 -61 -50 -68c-11 -10 -47 -21 -108 -33c-39 -5 -65 -11 -78 -16zM549 655l168 449l90 -209s68 -174 92 -242l-29 -2c-16 -1 -51 -1 -105 0s-126 3 -216 4z" />
    <glyph glyph-name="uniF032" unicode="&#xf032;" horiz-adv-x="1419" 
d="M2 94l-2 -94c75 3 136 5 181 6s76 3 93 4c117 8 217 16 301 13l199 -5c172 -1 300 23 404 70c50 25 97 61 141 109c33 33 57 72 72 116c19 60 28 114 28 162c0 176 -123 326 -360 381c39 19 72 35 97 48c25 12 43 22 54 30c85 63 127 137 127 233c0 44 -7 82 -20 121
c-28 77 -86 139 -170 180c-39 23 -72 34 -96 39c-67 18 -132 27 -193 27h-76c-16 0 -29 0 -39 1c-11 1 -18 1 -22 1h-13s-11 -1 -16 -2h-45l-383 -12l-262 -6l4 -84c61 -9 100 -13 115 -13c33 -1 56 -7 69 -16c6 -1 10 -5 13 -10c5 -14 9 -50 12 -109c3 -111 4 -199 5 -266
s2 -113 5 -139v-498c0 -85 -2 -149 -10 -193c-3 -16 -9 -32 -20 -51c-33 -13 -73 -23 -125 -31c-27 -4 -50 -8 -68 -12zM545 889v176c3 120 -1 210 -4 278c-3 33 -4 60 -4 76c52 10 96 15 131 15c116 0 202 -25 258 -76c57 -49 86 -112 86 -187c0 -212 -122 -290 -357 -290
c-40 0 -77 3 -110 8zM545 457v317c21 5 53 10 102 10c113 1 197 -10 250 -32c109 -41 184 -155 184 -306c0 -73 -15 -133 -39 -182c-27 -49 -67 -86 -122 -112c-119 -55 -262 -53 -361 -9c-7 18 -10 32 -10 43z" />
    <glyph glyph-name="uniF033" unicode="&#xf033;" horiz-adv-x="1054" 
d="M18 84l-18 -84c8 0 20 1 37 2c16 1 37 3 63 6c80 8 140 12 181 10h202l105 -12s40 -4 45 -4c7 -3 13 -4 18 -4h11h15s16 1 28 2c3 0 6 0 10 1s9 1 14 1c3 8 5 16 6 23s3 12 4 16c1 8 2 17 3 27c1 9 2 20 3 32c-19 3 -34 5 -45 7c-12 1 -19 2 -22 2c-39 5 -76 11 -123 22
c-1 7 -2 12 -2 17v10l14 45l43 235l39 158l64 311c13 72 36 172 67 305c3 23 7 49 15 82c8 37 16 66 24 88c26 10 61 20 105 31c41 10 77 20 110 31c5 21 10 38 15 51l3 20c1 6 2 12 3 19c-7 0 -20 -1 -38 -2c-19 -1 -42 -3 -69 -6c-104 -5 -174 -8 -221 -8h-26
c-13 0 -29 1 -50 2l-325 14l-21 -104c5 0 11 0 18 -1c6 -1 14 -2 23 -2c69 -3 118 -13 148 -28v-39l-9 -49l-22 -135l-17 -64l-30 -156c0 -3 -6 -24 -18 -63c-13 -39 -27 -99 -42 -178l-12 -64l-57 -268l-29 -137c-8 -43 -22 -77 -41 -103c-27 -13 -66 -26 -121 -39
c-35 -8 -62 -15 -78 -20z" />
    <glyph glyph-name="uniF034" unicode="&#xf034;" 
d="M160 1532h-58c-3 -7 -6 -17 -9 -31c-3 -15 -8 -33 -13 -55c-33 -148 -61 -246 -80 -295c8 -11 24 -27 55 -43c8 0 20 12 35 35c107 165 120 174 240 174h127s52 -1 63 -4c11 0 19 -10 19 -21c3 -13 4 -37 4 -72s1 -83 6 -143v-428c3 -196 -1 -341 -6 -432
c-3 -21 -6 -44 -11 -57c-27 -15 -72 -31 -135 -49c-41 -13 -68 -29 -80 -50v-10l2 -24c0 -3 1 -6 2 -10c1 -5 1 -10 1 -17c5 0 13 0 24 1s26 2 45 3c45 4 82 7 109 10s46 4 57 4c117 0 197 -3 244 -8s101 -8 164 -8h34c1 7 2 13 2 18v11v18s-1 20 -4 33c-15 5 -31 11 -49 18
l-50 13s-18 4 -21 4c-28 5 -45 11 -56 16c-7 30 -10 69 -10 117l-2 147v693l-2 151c0 19 2 43 6 72c12 3 24 4 35 4h31h138s53 -1 60 -4c10 -5 19 -12 27 -21c5 -7 18 -37 37 -92c17 -52 35 -95 53 -129c9 3 20 5 31 8c11 2 24 6 37 11c3 13 4 32 4 51v157
c-1 53 -2 100 -1 139s0 71 -1 97c-7 1 -12 2 -16 2h-11l-43 -2c-3 -7 -5 -12 -6 -16c-1 -5 -3 -9 -4 -13c-11 -30 -20 -48 -27 -53l-55 -8h-502l-113 -2l-20 -2c-19 0 -39 0 -60 -1s-44 -1 -67 -1c-75 0 -118 1 -129 4c-8 9 -22 33 -41 71c-3 7 -5 11 -10 19zM1415 1292h121
v-1048h-121c-35 0 -42 -21 -18 -45l184 -187c10 -8 20 -12 31 -12s22 4 33 12l184 187c24 24 18 45 -21 45h-118v1048h118c39 0 45 20 21 47l-184 185c-11 8 -22 12 -31 12c-13 0 -24 -4 -33 -12l-184 -185c-25 -27 -18 -47 18 -47z" />
    <glyph glyph-name="uniF035" unicode="&#xf035;" horiz-adv-x="1536" 
d="M154 1536h-56c-5 -13 -12 -34 -20 -70c-33 -117 -59 -194 -78 -233c8 -8 22 -22 53 -35c9 0 20 10 33 29c51 65 90 106 117 123c4 3 18 5 41 7s49 3 78 4s57 1 85 2s49 1 62 1h123s50 -1 59 -2c15 -5 19 -8 19 -19c0 -3 0 -18 1 -47s1 -64 2 -107c1 -86 3 -191 3 -281
c0 -45 0 -85 -1 -120s-1 -59 -1 -71c-3 -20 -5 -34 -10 -45c-28 -14 -72 -28 -132 -41c-35 -8 -60 -21 -73 -39v-29c1 -3 2 -9 2 -20c5 0 13 0 24 1s25 2 43 3c44 3 79 5 105 7s44 3 53 3c113 0 192 -2 236 -6c42 -4 94 -6 157 -6h33c0 5 0 10 1 14s1 7 1 10s0 7 -1 14
c-1 6 -2 14 -3 25c-7 3 -14 5 -22 8c-9 2 -18 4 -27 7c-19 4 -34 7 -45 10s-18 4 -21 4c-27 4 -45 8 -53 12c-8 21 -12 51 -12 92l-2 119v445c0 13 1 33 4 57c12 1 24 2 35 2h28h98h103s61 0 85 -1c48 -1 53 -4 69 -17c5 -10 16 -35 34 -74c18 -44 35 -78 52 -103
c20 3 41 8 63 15c3 13 4 25 4 41v313h-67c-5 -11 -8 -17 -11 -22c-8 -24 -16 -39 -24 -46l-53 -6h-727l-19 -2h-123h-74h-91s-55 0 -77 1c-23 1 -35 1 -36 1c-7 7 -19 27 -37 58c-1 1 -5 6 -10 14zM199 449l-187 -185c-8 -9 -12 -19 -12 -31s4 -22 12 -30l187 -187
c24 -24 45 -18 45 21v119h1048v-119c0 -39 20 -45 47 -21l185 187c8 8 12 18 12 30c0 13 -4 23 -12 31l-185 185c-27 27 -47 17 -47 -19v-121h-1048v121c0 36 -21 46 -45 19z" />
    <glyph glyph-name="uniF036" unicode="&#xf036;" 
d="M0 1460v-117c0 -40 34 -75 78 -75h921c41 0 76 34 76 75v117c0 41 -35 76 -76 76h-921c-44 0 -78 -35 -78 -76zM0 1036v-114c0 -44 34 -76 78 -76h1536c41 0 76 32 76 76v114c0 44 -35 78 -76 78h-1536c-44 0 -78 -34 -78 -78zM0 614v-114c0 -44 34 -78 78 -78h1075
c41 0 76 34 76 78v114c0 44 -35 78 -76 78h-1075c-44 0 -78 -34 -78 -78zM0 193v-115c0 -44 34 -78 78 -78h1689c41 0 76 34 76 78v115c0 40 -35 75 -76 75h-1689c-44 0 -78 -34 -78 -75z" />
    <glyph glyph-name="uniF037" unicode="&#xf037;" 
d="M385 1460v-117c0 -40 32 -75 76 -75h921c44 0 78 34 78 75v117c0 41 -34 76 -78 76h-921c-44 0 -76 -35 -76 -76zM78 1036v-114c0 -44 32 -76 76 -76h1536c43 0 77 32 77 76v114c0 44 -33 78 -77 78h-1536c-44 0 -76 -34 -76 -78zM307 614v-114c0 -44 34 -78 78 -78h1075
c41 0 76 34 76 78v114c0 44 -35 78 -76 78h-1075c-44 0 -78 -34 -78 -78zM0 193v-115c0 -44 34 -78 78 -78h1689c41 0 76 34 76 78v115c0 40 -35 75 -76 75h-1689c-44 0 -78 -34 -78 -75z" />
    <glyph glyph-name="uniF038" unicode="&#xf038;" 
d="M768 1460v-117c0 -40 34 -75 78 -75h921c41 0 76 34 76 75v117c0 41 -35 76 -76 76h-921c-44 0 -78 -35 -78 -76zM154 1036v-114c0 -44 33 -76 77 -76h1536c41 0 76 32 76 76v114c0 44 -35 78 -76 78h-1536c-43 0 -77 -34 -77 -78zM614 614v-114c0 -44 34 -78 78 -78
h1075c41 0 76 34 76 78v114c0 44 -35 78 -76 78h-1075c-44 0 -78 -34 -78 -78zM0 193v-115c0 -44 34 -78 78 -78h1689c41 0 76 34 76 78v115c0 40 -35 75 -76 75h-1689c-44 0 -78 -34 -78 -75z" />
    <glyph glyph-name="uniF039" unicode="&#xf039;" 
d="M0 1460v-117c0 -40 34 -75 78 -75h1689c41 0 76 34 76 75v117c0 41 -35 76 -76 76h-1689c-44 0 -78 -35 -78 -76zM0 1036v-114c0 -44 34 -76 78 -76h1689c41 0 76 32 76 76v114c0 44 -35 78 -76 78h-1689c-44 0 -78 -34 -78 -78zM0 614v-114c0 -44 34 -78 78 -78h1689
c41 0 76 34 76 78v114c0 44 -35 78 -76 78h-1689c-44 0 -78 -34 -78 -78zM0 193v-115c0 -44 34 -78 78 -78h1689c41 0 76 34 76 78v115c0 40 -35 75 -76 75h-1689c-44 0 -78 -34 -78 -75z" />
    <glyph glyph-name="uniF03A" unicode="&#xf03a;" 
d="M0 1460v-117c0 -40 34 -75 78 -75h153c41 0 76 34 76 75v117c0 41 -35 76 -76 76h-153c-44 0 -78 -35 -78 -76zM461 1460v-117c0 -40 34 -75 78 -75h1228c41 0 76 34 76 75v117c0 41 -35 76 -76 76h-1228c-44 0 -78 -35 -78 -76zM0 1036v-114c0 -44 34 -76 78 -76h153
c41 0 76 32 76 76v114c0 44 -35 78 -76 78h-153c-44 0 -78 -34 -78 -78zM461 1036v-114c0 -44 34 -76 78 -76h1228c41 0 76 32 76 76v114c0 44 -35 78 -76 78h-1228c-44 0 -78 -34 -78 -78zM0 614v-114c0 -44 34 -78 78 -78h153c41 0 76 34 76 78v114c0 44 -35 78 -76 78
h-153c-44 0 -78 -34 -78 -78zM461 614v-114c0 -44 34 -78 78 -78h1228c41 0 76 34 76 78v114c0 44 -35 78 -76 78h-1228c-44 0 -78 -34 -78 -78zM0 193v-115c0 -44 34 -78 78 -78h153c41 0 76 34 76 78v115c0 40 -35 75 -76 75h-153c-44 0 -78 -34 -78 -75zM461 193v-115
c0 -44 34 -78 78 -78h1228c41 0 76 34 76 78v115c0 40 -35 75 -76 75h-1228c-44 0 -78 -34 -78 -75z" />
    <glyph glyph-name="uniF03B" unicode="&#xf03b;" 
d="M614 1497v-1458c0 -26 13 -39 39 -39h76c26 0 39 13 39 39v1458c0 26 -13 39 -39 39h-76c-26 0 -39 -13 -39 -39zM922 1460v-117c0 -40 33 -75 77 -75h537c44 0 78 34 78 75v117c0 41 -34 76 -78 76h-537c-43 0 -77 -35 -77 -76zM922 1036v-114c0 -44 33 -76 77 -76h691
c43 0 77 32 77 76v114c0 44 -33 78 -77 78h-691c-43 0 -77 -34 -77 -78zM0 831v-75c0 -26 13 -39 39 -39h213v-152c0 -44 24 -53 55 -22l215 215c23 23 21 50 0 71l-215 215c-29 31 -55 21 -55 -20v-154h-213c-26 0 -39 -13 -39 -39zM922 614v-114c0 -44 33 -78 77 -78h615
c41 0 76 34 76 78v114c0 44 -35 78 -76 78h-615c-43 0 -77 -34 -77 -78zM922 193v-115c0 -44 33 -78 77 -78h768c41 0 76 34 76 78v115c0 40 -35 75 -76 75h-768c-43 0 -77 -34 -77 -75z" />
    <glyph glyph-name="uniF03C" unicode="&#xf03c;" 
d="M0 1460v-117c0 -40 35 -75 76 -75h538c41 0 76 34 76 75v117c0 41 -35 76 -76 76h-538c-41 0 -76 -35 -76 -76zM1075 1497v-1458c0 -26 13 -39 39 -39h76c21 0 39 18 39 39v1458c0 21 -18 39 -39 39h-76c-26 0 -39 -13 -39 -39zM0 1036v-114c0 -44 35 -76 76 -76h692
c41 0 76 32 76 76v114c0 44 -35 78 -76 78h-692c-41 0 -76 -34 -76 -78zM1536 993l-217 -215c-9 -13 -14 -24 -14 -35c0 -12 5 -24 14 -36l217 -218c31 -29 53 -18 53 23v154h215c23 0 39 18 39 39v75c0 23 -18 39 -39 39h-215v152c0 44 -22 53 -53 22zM0 614v-114
c0 -44 35 -78 76 -78h614c44 0 78 34 78 78v114c0 44 -34 78 -78 78h-614c-41 0 -76 -34 -76 -78zM0 193v-115c0 -44 35 -78 76 -78h768c44 0 78 34 78 78v115c0 40 -34 75 -78 75h-768c-41 0 -76 -34 -76 -75z" />
    <glyph glyph-name="uniF03D" unicode="&#xf03d;" 
d="M0 1092v-768c0 -64 27 -120 69 -163s99 -69 162 -69h768c64 0 121 26 162 69s68 100 68 163v237l483 -471c15 -15 33 -22 55 -22c9 0 18 2 29 6c31 13 47 36 47 69v1127c0 33 -16 56 -47 69c-11 4 -20 6 -29 7c-21 0 -40 -8 -55 -23l-483 -471v240c0 63 -27 121 -68 162
c-41 40 -99 67 -162 67h-768c-63 0 -120 -27 -162 -67c-42 -41 -69 -99 -69 -162z" />
    <glyph glyph-name="uniF03E" unicode="&#xf03e;" 
d="M0 1421v-1306c0 -63 52 -115 115 -115h1614c63 0 114 52 114 115v1306c0 63 -51 115 -114 115h-1614c-63 0 -115 -52 -115 -115zM154 154v1228h1536v-1228h-1536zM307 1073c0 -84 68 -153 156 -153c84 0 153 69 153 153c0 88 -69 156 -153 156c-88 0 -156 -68 -156 -156z
M307 307h1229v422l-410 424l-354 -537l-188 156l-277 -360v-105z" />
    <glyph glyph-name="uniF040" unicode="&#xf040;" horiz-adv-x="1536" 
d="M1102 1382l280 -280l119 119c23 23 35 51 35 84s-12 61 -35 84l-55 57l-57 55c-23 23 -51 35 -84 35s-61 -12 -84 -35zM0 0l418 137l866 867l-280 280l-867 -866zM297 430l690 688c5 7 12 10 21 10c8 0 15 -3 22 -10c13 -15 13 -30 0 -43l-690 -690c-6 -5 -13 -8 -21 -8
c-19 0 -32 14 -32 31c0 8 3 15 10 22z" />
    <glyph glyph-name="uniF041" unicode="&#xf041;" horiz-adv-x="1128" 
d="M659 37l379 661c55 91 90 191 90 303c0 156 -62 298 -164 401s-243 165 -399 165c-155 0 -297 -62 -400 -165s-165 -245 -165 -401c0 -111 35 -210 90 -301l381 -663c26 -45 57 -68 93 -68s68 23 95 68zM285 1001c0 77 30 147 82 199s119 82 198 82c77 0 147 -30 198 -82
s81 -123 81 -199s-30 -146 -81 -197s-122 -81 -198 -81c-79 0 -146 30 -198 81s-82 121 -82 197z" />
    <glyph glyph-name="uniF042" unicode="&#xf042;" horiz-adv-x="1597" 
d="M0 768c0 -221 89 -421 234 -565c144 -145 344 -234 565 -234s420 89 565 234c145 144 233 344 233 565s-88 421 -233 566c-145 144 -344 233 -565 233s-421 -89 -565 -233c-145 -145 -234 -345 -234 -566zM799 1327v-1118c-156 0 -295 63 -395 164
c-101 101 -164 239 -164 395s63 294 164 395c100 101 239 164 395 164z" />
    <glyph glyph-name="uniF043" unicode="&#xf043;" horiz-adv-x="1130" 
d="M0 535c0 -156 62 -298 165 -401s244 -165 400 -165s299 62 401 165s164 245 164 401c0 57 -8 111 -23 162c-32 100 -71 152 -136 241c-33 44 -68 95 -107 154c-78 117 -161 260 -205 411c-13 47 -53 69 -94 64c-40 5 -81 -17 -94 -64c-23 -75 -53 -147 -90 -217
c-73 -141 -155 -260 -221 -348c-33 -45 -57 -78 -70 -100c-57 -88 -90 -188 -90 -303zM248 410c-1 28 7 53 22 75c4 6 10 14 19 25l27 39c19 30 38 63 49 102c4 14 12 20 24 17c13 2 20 -4 23 -17c5 -19 13 -37 23 -54c19 -35 38 -65 55 -87c8 -11 14 -20 18 -25
c15 -21 22 -46 22 -75c0 -80 -62 -142 -141 -142s-141 63 -141 142z" />
    <glyph glyph-name="uniF044" unicode="&#xf044;" 
d="M1501 1415l221 -221l95 92c37 39 36 94 0 133l-45 45l-46 45c-17 19 -39 29 -65 29s-49 -10 -68 -29zM0 1229v-922c0 -84 35 -160 90 -216s133 -91 217 -91h1075c85 0 160 35 216 91s92 132 92 216v637l-193 -192v-445c0 -63 -52 -114 -115 -114h-1075
c-63 0 -114 51 -114 114v922c0 63 51 114 114 114h905l191 191c-3 0 -6 0 -10 1c-5 1 -8 1 -11 1h-1075c-84 0 -162 -35 -217 -90s-90 -133 -90 -217zM631 324l330 108l651 651l-221 222l-652 -652zM1411 1139l-512 -510c-4 -5 -9 -8 -16 -8s-13 3 -17 8c-12 11 -12 23 0 35
l510 510c23 21 59 -11 35 -35z" />
    <glyph glyph-name="uniF045" unicode="&#xf045;" 
d="M1327 1464v-231c-323 -3 -557 -92 -712 -238c-156 -146 -230 -348 -230 -569v-37s1 -28 4 -43c3 -18 12 -27 29 -27c18 0 28 9 31 27c21 153 103 292 248 390c144 98 354 159 630 159v-260c0 -76 43 -96 98 -41l392 391c35 33 36 96 0 129l-392 391
c-55 55 -98 35 -98 -41zM0 1229v-922c0 -84 35 -160 90 -216s133 -91 217 -91h1075c85 0 160 35 216 91s92 132 92 216v287l-129 -127c-23 -21 -43 -36 -64 -49v-111c0 -63 -52 -114 -115 -114h-1075c-63 0 -114 51 -114 114v922c0 63 51 114 114 114h520
c97 39 201 65 310 78v52c0 21 2 42 6 63h-836c-84 0 -162 -35 -217 -90s-90 -133 -90 -217z" />
    <glyph glyph-name="uniF046" unicode="&#xf046;" 
d="M0 1229v-922c0 -84 35 -160 90 -216s133 -91 217 -91h1075c85 0 160 35 216 91s92 132 92 216v518l-193 -192v-326c0 -63 -52 -114 -115 -114h-1075c-63 0 -114 51 -114 114v922c0 63 51 114 114 114h940l187 187c-17 4 -34 6 -52 6h-1075c-84 0 -162 -35 -217 -90
s-90 -133 -90 -217zM408 911l393 -395l100 -98c15 -15 34 -23 56 -23c21 0 40 8 55 23l809 809c29 29 31 79 0 110l-99 99c-29 29 -81 31 -112 0l-654 -656l-340 340c-15 15 -33 23 -54 23c-22 0 -41 -8 -56 -23l-98 -98c-15 -15 -23 -34 -23 -55c0 -22 8 -41 23 -56z" />
    <glyph glyph-name="uniF047" unicode="&#xf047;" horiz-adv-x="1597" 
d="M274 1067l-256 -256c-12 -12 -18 -26 -18 -43s6 -31 18 -43l256 -256c36 -36 64 -25 64 27v176h360v-365h-172c-52 0 -62 -27 -26 -63l256 -256c24 -25 62 -24 86 0l256 256c37 35 25 63 -27 63h-172v365h361v-176c0 -52 27 -63 63 -27l256 256c12 12 18 26 18 43
s-6 31 -18 43l-256 256c-36 36 -63 25 -63 -27v-170h-361v359h172c52 0 63 27 27 63l-256 256c-24 25 -62 24 -86 0l-256 -256c-36 -35 -23 -63 26 -63h172v-359h-360v170c0 52 -28 63 -64 27z" />
    <glyph glyph-name="uniF048" unicode="&#xf048;" horiz-adv-x="1075" 
d="M0 76v1382c0 44 35 78 76 78h153c44 0 78 -34 78 -78v-1382c0 -41 -34 -76 -78 -76h-153c-41 0 -76 35 -76 76zM324 723l653 -705c16 -19 37 -23 63 -14c23 11 35 30 35 57v1412c0 27 -12 47 -35 59c-11 3 -18 4 -22 4c-18 0 -32 -6 -41 -18l-653 -707
c-23 -21 -21 -64 0 -88z" />
    <glyph glyph-name="uniF049" unicode="&#xf049;" 
d="M0 76v1382c0 44 35 78 76 78h153c44 0 78 -34 78 -78v-1382c0 -41 -34 -76 -78 -76h-153c-41 0 -76 35 -76 76zM324 723l653 -705c16 -19 37 -23 63 -14c23 11 35 30 35 57v1412c0 27 -12 47 -35 59c-11 3 -18 4 -22 4c-18 0 -32 -6 -41 -18l-653 -707
c-23 -21 -21 -64 0 -88zM1092 723l653 -705c16 -19 37 -23 63 -14c23 11 35 30 35 57v1412c0 27 -12 47 -35 59c-11 3 -18 4 -22 4c-18 0 -32 -6 -41 -18l-653 -707c-23 -21 -21 -64 0 -88z" />
    <glyph glyph-name="uniF04A" unicode="&#xf04a;" horiz-adv-x="1536" 
d="M16 723l654 -705c35 -40 98 -12 98 43v1412c0 29 -12 48 -35 57c-8 4 -15 6 -22 6c-18 0 -32 -6 -41 -18l-654 -707c-11 -12 -16 -27 -16 -44s5 -32 16 -44zM784 723l654 -705c35 -40 98 -12 98 43v1412c0 29 -12 48 -35 57c-8 4 -15 6 -22 6c-18 0 -32 -6 -41 -18
l-654 -707c-11 -12 -16 -27 -16 -44s5 -32 16 -44z" />
    <glyph glyph-name="uniF04B" unicode="&#xf04b;" horiz-adv-x="1349" 
d="M0 1466v-1396c0 -27 12 -47 35 -60c11 -7 23 -10 35 -10s23 3 34 10l1211 697c23 16 35 36 35 61c0 24 -12 44 -35 61l-1211 697c-43 31 -104 -8 -104 -60z" />
    <glyph glyph-name="uniF04C" unicode="&#xf04c;" horiz-adv-x="1536" 
d="M0 1466v-1396c0 -39 31 -70 70 -70h489c39 0 70 31 70 70v1396c0 39 -31 70 -70 70h-489c-39 0 -70 -31 -70 -70zM907 1466v-1396c0 -39 31 -70 70 -70h489c39 0 70 31 70 70v1396c0 39 -31 70 -70 70h-489c-39 0 -70 -31 -70 -70z" />
    <glyph glyph-name="uniF04D" unicode="&#xf04d;" horiz-adv-x="1536" 
d="M0 1466v-1396c0 -39 31 -70 70 -70h1396c39 0 70 31 70 70v1396c0 39 -31 70 -70 70h-1396c-39 0 -70 -31 -70 -70z" />
    <glyph glyph-name="uniF04E" unicode="&#xf04e;" horiz-adv-x="1536" 
d="M0 1475v-1414c0 -27 12 -46 35 -57c11 -3 18 -4 22 -4c17 0 30 6 41 18l654 705c11 12 16 27 16 45s-5 33 -16 45l-654 705c-16 19 -37 23 -63 14c-23 -12 -35 -31 -35 -57zM768 1475v-1414c0 -27 12 -46 35 -57c11 -3 18 -4 22 -4c17 0 30 6 41 18l654 705
c11 12 16 27 16 45s-5 33 -16 45l-654 705c-16 19 -37 23 -63 14c-23 -12 -35 -31 -35 -57z" />
    <glyph glyph-name="uniF050" unicode="&#xf050;" 
d="M0 1475v-1414c0 -27 12 -46 35 -57c11 -3 18 -4 22 -4c17 0 30 6 41 18l654 705c11 12 16 27 16 45s-5 33 -16 45l-654 705c-16 19 -37 23 -63 14c-23 -12 -35 -31 -35 -57zM768 1475v-1414c0 -27 12 -46 35 -57c11 -3 18 -4 22 -4c17 0 30 6 41 18l654 705
c11 12 16 27 16 45s-5 33 -16 45l-654 705c-16 19 -37 23 -63 14c-23 -12 -35 -31 -35 -57zM1536 76v1382c0 44 35 78 76 78h153c44 0 78 -34 78 -78v-1382c0 -41 -34 -76 -78 -76h-153c-41 0 -76 35 -76 76z" />
    <glyph glyph-name="uniF051" unicode="&#xf051;" horiz-adv-x="1075" 
d="M0 1475v-1414c0 -27 12 -46 35 -57c11 -3 18 -4 22 -4c17 0 30 6 41 18l654 705c11 12 16 27 16 45s-5 33 -16 45l-654 705c-16 19 -37 23 -63 14c-23 -12 -35 -31 -35 -57zM768 76v1382c0 44 35 78 76 78h153c44 0 78 -34 78 -78v-1382c0 -41 -34 -76 -78 -76h-153
c-41 0 -76 35 -76 76z" />
    <glyph glyph-name="uniF052" unicode="&#xf052;" horiz-adv-x="1536" 
d="M719 1368l-699 -698c-21 -22 -26 -47 -14 -76c11 -29 33 -43 64 -43h1396c32 0 53 14 64 43c13 29 8 54 -14 76l-699 698c-27 28 -71 27 -98 0zM0 268v-198c0 -39 31 -70 70 -70h1396c39 0 70 31 70 70v198c0 39 -31 70 -70 70h-1396c-39 0 -70 -31 -70 -70z" />
    <glyph glyph-name="uniF053" unicode="&#xf053;" horiz-adv-x="964" 
d="M29 698l671 -673c19 -19 42 -29 68 -29s49 10 68 29l100 102c19 19 29 42 29 67s-10 47 -29 66l-508 500l508 510c19 19 29 41 29 67s-10 49 -29 68l-100 100c-19 19 -42 29 -68 29s-49 -10 -68 -29l-671 -674c-19 -19 -29 -41 -29 -66s10 -48 29 -67z" />
    <glyph glyph-name="uniF054" unicode="&#xf054;" horiz-adv-x="964" 
d="M29 127l100 -100c19 -19 42 -29 68 -29c25 0 48 10 67 29l672 671c19 19 29 42 29 68s-10 49 -29 68l-672 673c-19 19 -41 29 -67 29s-49 -10 -68 -29l-100 -102c-19 -19 -29 -41 -29 -66s10 -48 29 -67l508 -502l-508 -508c-19 -19 -29 -42 -29 -67c0 -26 10 -49 29 -68
z" />
    <glyph glyph-name="uniF055" unicode="&#xf055;" horiz-adv-x="1597" 
d="M0 768c0 -221 89 -421 234 -565c144 -145 344 -234 565 -234s420 89 565 234c145 144 233 344 233 565s-88 421 -233 566c-145 144 -344 233 -565 233s-421 -89 -565 -233c-145 -145 -234 -345 -234 -566zM338 688v158c0 22 11 33 33 33h313v346c0 21 11 32 33 32h164
c21 1 32 -10 32 -32v-346h314c16 0 33 -14 33 -33v-158c0 -19 -17 -33 -33 -33h-314v-344c1 -21 -10 -32 -32 -32h-164c-22 -1 -33 10 -33 32v344h-313c-22 0 -33 11 -33 33z" />
    <glyph glyph-name="uniF056" unicode="&#xf056;" horiz-adv-x="1597" 
d="M0 768c0 -221 89 -421 234 -565c144 -145 344 -234 565 -234s420 89 565 234c145 144 233 344 233 565s-88 421 -233 566c-145 144 -344 233 -565 233s-421 -89 -565 -233c-145 -145 -234 -345 -234 -566zM338 688v158c0 22 11 33 33 33h856c16 0 33 -14 33 -33v-158
c0 -19 -17 -33 -33 -33h-856c-22 0 -33 11 -33 33z" />
    <glyph glyph-name="uniF057" unicode="&#xf057;" horiz-adv-x="1597" 
d="M58 469c39 -98 97 -186 175 -264c156 -156 361 -234 566 -234c204 0 409 78 565 234s233 360 233 565s-77 409 -233 565s-361 234 -565 234c-205 0 -410 -78 -566 -234c-155 -155 -233 -360 -233 -565c0 -103 19 -203 58 -301zM395 528l242 244l-219 219
c-17 16 -17 32 0 47l110 113c7 7 15 10 24 10s16 -3 23 -10l222 -221l243 244c15 17 30 17 47 0l117 -115c15 -16 15 -32 0 -47l-246 -246l222 -219c15 -16 15 -32 0 -47l-113 -113c-7 -7 -14 -10 -23 -10s-17 3 -24 10l-219 221l-244 -243c-13 -15 -34 -13 -47 0l-115 116
c-7 7 -10 15 -10 24s3 16 10 23z" />
    <glyph glyph-name="uniF058" unicode="&#xf058;" horiz-adv-x="1597" 
d="M0 768c0 -221 89 -421 234 -565c144 -145 344 -234 565 -234s420 89 565 234c145 144 233 344 233 565s-88 421 -233 566c-145 144 -344 233 -565 233s-421 -89 -565 -233c-145 -145 -234 -345 -234 -566zM254 752l104 106c11 9 24 14 37 14s24 -5 33 -14l221 -221
c10 -9 22 -14 35 -14s24 5 33 14l452 453c10 9 22 14 35 14s24 -5 35 -14l104 -107c20 -19 19 -49 0 -68l-550 -550c-20 -20 -55 -35 -82 -35h-56c-27 0 -63 16 -82 35l-319 319c-9 9 -14 21 -14 34s5 25 14 34z" />
    <glyph glyph-name="uniF059" unicode="&#xf059;" horiz-adv-x="1597" 
d="M0 768c0 -221 89 -421 234 -565c144 -145 344 -234 565 -234s420 89 565 234c145 144 233 344 233 565s-88 421 -233 566c-145 144 -344 233 -565 233s-421 -89 -565 -233c-145 -145 -234 -345 -234 -566zM627 985l-95 115c-17 31 -1 36 23 58c12 11 30 22 53 35
c47 25 115 52 199 52c76 0 157 -25 218 -71s101 -118 101 -209c0 -69 -19 -119 -47 -160c-29 -41 -63 -76 -96 -103c-49 -44 -88 -75 -88 -127v-51c0 -16 -13 -30 -29 -30h-164c-16 0 -30 14 -30 30v64c0 60 18 104 44 143s58 68 89 92c49 44 86 76 86 125
c0 47 -43 80 -98 80c-17 0 -32 -2 -46 -7c-29 -9 -54 -23 -67 -34c-7 -5 -10 -8 -10 -8c-7 -4 -15 -6 -23 -6c-11 3 -17 7 -20 12zM672 252v156c0 16 14 30 30 30h164c17 0 29 -14 29 -30v-156c0 -16 -13 -31 -29 -31h-164c-16 0 -30 15 -30 31z" />
    <glyph glyph-name="uniF05A" unicode="&#xf05a;" horiz-adv-x="1597" 
d="M0 768c0 -221 89 -421 234 -565c144 -145 344 -234 565 -234s420 89 565 234c145 144 233 344 233 565s-88 421 -233 566c-145 144 -344 233 -565 233s-421 -89 -565 -233c-145 -145 -234 -345 -234 -566zM686 1151v166c0 16 15 29 31 29h188c19 0 29 -10 29 -29v-166
c0 -16 -13 -31 -29 -31h-188c-16 0 -31 15 -31 31zM573 858v139c0 17 13 31 29 31h303c17 0 29 -15 29 -31v-577h78c19 0 28 -10 28 -29v-139c0 -16 -12 -31 -28 -31h-402c-16 0 -30 15 -30 31v139c0 16 14 29 30 29h78v409h-86c-19 0 -29 10 -29 29z" />
    <glyph glyph-name="uniF05B" unicode="&#xf05b;" horiz-adv-x="1536" 
d="M0 846v-154c0 -26 13 -39 39 -39h164c24 -112 81 -213 159 -291s179 -135 291 -159v-164c0 -26 13 -39 39 -39h154c21 0 37 18 37 39v164c112 24 214 81 292 159s134 179 158 291h164c26 0 39 13 39 39v154c0 21 -18 37 -39 37h-164c-24 112 -80 214 -158 292
s-180 134 -292 158v164c0 21 -16 39 -37 39h-154c-26 0 -39 -13 -39 -39v-164c-112 -24 -213 -80 -291 -158s-135 -180 -159 -292h-164c-21 0 -39 -16 -39 -37zM365 653h174c21 0 36 18 36 39v154c0 21 -15 37 -36 37h-174c37 141 147 249 288 288v-172c0 -25 13 -38 39 -38
h154c21 0 37 17 37 38v172c141 -37 249 -147 288 -288h-172c-21 0 -38 -16 -38 -37v-154c-1 -26 12 -39 38 -39h172c-37 -141 -147 -249 -288 -288v174c0 21 -16 36 -37 36h-154c-21 0 -39 -15 -39 -36v-174c-141 37 -249 147 -288 288z" />
    <glyph glyph-name="uniF05C" unicode="&#xf05c;" horiz-adv-x="1597" 
d="M0 768c0 -221 89 -421 234 -565c144 -145 344 -234 565 -234s420 89 565 234c145 144 233 344 233 565s-88 421 -233 566c-145 144 -344 233 -565 233s-421 -89 -565 -233c-145 -145 -234 -345 -234 -566zM240 768c0 156 63 294 164 395c100 101 239 164 395 164
c155 0 294 -63 395 -164s164 -239 164 -395s-63 -294 -164 -395s-239 -164 -395 -164s-295 63 -395 164c-101 101 -164 239 -164 395zM463 545l112 -113c9 -8 19 -12 30 -12s20 4 28 12l166 166l166 -166c8 -8 18 -12 29 -12s20 4 28 12l113 113c19 19 19 38 0 57l-166 166
l166 166c19 19 19 38 0 57l-113 113c-19 19 -38 19 -57 0l-166 -166l-166 166c-19 19 -39 19 -58 0l-112 -113c-8 -8 -12 -17 -12 -28s4 -21 12 -29l166 -166l-166 -166c-8 -8 -12 -17 -12 -28s4 -21 12 -29z" />
    <glyph glyph-name="uniF05D" unicode="&#xf05d;" horiz-adv-x="1597" 
d="M0 768c0 -221 89 -421 234 -565c144 -145 344 -234 565 -234s420 89 565 234c145 144 233 344 233 565s-88 421 -233 566c-145 144 -344 233 -565 233s-421 -89 -565 -233c-145 -145 -234 -345 -234 -566zM240 768c0 156 63 294 164 395c100 101 239 164 395 164
c155 0 294 -63 395 -164s164 -239 164 -395s-63 -294 -164 -395s-239 -164 -395 -164s-295 63 -395 164c-101 101 -164 239 -164 395zM342 690l250 -250c16 -16 49 -28 70 -28h114c23 0 54 12 70 28l409 410c15 13 13 42 0 55l-114 115c-7 7 -17 10 -28 10
c-12 0 -21 -3 -28 -10l-337 -340c-19 -17 -39 -17 -58 0l-178 180c-7 7 -16 10 -27 10c-12 0 -21 -3 -28 -10l-115 -115c-7 -7 -10 -16 -10 -27c0 -12 3 -21 10 -28z" />
    <glyph glyph-name="uniF05E" unicode="&#xf05e;" horiz-adv-x="1597" 
d="M0 768c0 -221 89 -421 234 -565c144 -145 344 -234 565 -234s420 89 565 234c145 144 233 344 233 565s-88 421 -233 566c-145 144 -344 233 -565 233s-421 -89 -565 -233c-145 -145 -234 -345 -234 -566zM1100 1237l-770 -770c-57 87 -90 189 -90 301
c0 156 63 294 164 395c100 101 239 164 395 164c112 0 213 -33 301 -90zM498 297l772 772c55 -87 88 -189 88 -301c0 -156 -63 -294 -164 -395s-239 -164 -395 -164c-112 0 -213 33 -301 88z" />
    <glyph glyph-name="uniF060" unicode="&#xf060;" horiz-adv-x="1536" 
d="M29 700l671 -671c19 -19 42 -29 68 -29s49 10 68 29l100 100c19 19 29 42 29 68c0 25 -10 48 -29 67l-338 338h844c52 0 94 42 94 94v144c0 55 -41 96 -96 96h-842l338 338c19 19 29 42 29 68c0 25 -10 48 -29 67l-100 100c-19 19 -42 29 -68 29s-49 -10 -68 -29
l-671 -673c-19 -19 -29 -42 -29 -68s10 -49 29 -68z" />
    <glyph glyph-name="uniF061" unicode="&#xf061;" horiz-adv-x="1536" 
d="M0 842v-144c0 -55 42 -96 94 -96h844l-338 -338c-19 -19 -29 -41 -29 -67s10 -49 29 -68l100 -100c19 -19 42 -29 68 -29s49 10 68 29l671 673c19 19 29 42 29 67s-10 48 -29 67l-671 673c-19 19 -42 29 -68 29s-49 -10 -68 -29l-100 -100c-19 -19 -29 -42 -29 -67
c0 -26 10 -49 29 -68l338 -338h-844c-52 0 -94 -42 -94 -94z" />
    <glyph glyph-name="uniF062" unicode="&#xf062;" horiz-adv-x="1536" 
d="M29 700l100 -100c19 -19 42 -29 68 -29c25 0 48 10 67 29l338 338v-844c0 -52 39 -94 94 -94h144c52 0 94 42 94 94v844l340 -338c19 -19 42 -29 67 -29s47 10 66 29l100 100c19 19 29 42 29 68s-10 49 -29 68l-671 671c-19 19 -42 29 -68 29s-49 -10 -68 -29l-673 -671
c-39 -39 -37 -97 2 -136z" />
    <glyph glyph-name="uniF063" unicode="&#xf063;" horiz-adv-x="1536" 
d="M29 698l671 -671c19 -19 42 -29 68 -29s49 10 68 29l673 671c19 19 29 42 29 68s-10 49 -29 68l-102 100c-19 19 -41 29 -66 29s-48 -10 -67 -29l-340 -338v844c0 52 -39 94 -94 94h-144c-52 0 -94 -42 -94 -94v-844l-338 338c-19 19 -41 29 -67 29s-49 -10 -68 -29
l-100 -100c-19 -19 -29 -42 -29 -68s10 -49 29 -68z" />
    <glyph glyph-name="uniF064" unicode="&#xf064;" 
d="M1192 1446v-293c-409 -3 -707 -118 -902 -302c-196 -184 -290 -437 -290 -716c0 -34 2 -68 6 -102c3 -22 15 -33 37 -33h2c22 0 34 11 37 33c27 193 130 366 313 490s448 201 797 204v-330c0 -95 57 -119 125 -51l491 494c23 23 35 51 35 82c0 33 -12 60 -35 82l-491 493
c-71 68 -125 45 -125 -51z" />
    <glyph glyph-name="uniF065" unicode="&#xf065;" horiz-adv-x="1536" 
d="M780 940l160 -158c9 -9 20 -14 33 -14s23 5 31 14l274 273l166 -166c52 -49 92 -32 92 39v522c0 45 -39 86 -88 86h-520c-72 0 -91 -40 -39 -92l166 -166l-275 -274c-8 -9 -12 -19 -12 -31c0 -13 4 -24 12 -33zM0 608v-522c0 -45 39 -86 88 -86h520c72 0 91 40 39 92
l-166 166l275 274c8 9 12 19 12 32c0 12 -4 23 -12 32l-160 160c-9 8 -20 12 -33 12s-23 -4 -31 -12l-274 -275l-166 166c-52 49 -92 32 -92 -39z" />
    <glyph glyph-name="uniF066" unicode="&#xf066;" horiz-adv-x="1536" 
d="M768 1376v-522c0 -23 9 -43 27 -61c13 -17 34 -25 61 -25h520c72 0 91 40 39 92l-166 166l275 272c8 10 12 21 12 34c0 12 -4 22 -12 30l-160 160c-9 9 -20 14 -33 14s-23 -5 -31 -14l-274 -275l-166 166c-52 52 -92 34 -92 -37zM12 172l160 -160c9 -9 20 -14 33 -14
s23 5 31 14l274 275l166 -166c52 -52 92 -34 92 37v522c0 45 -37 86 -88 86h-520c-72 0 -91 -40 -39 -92l166 -166l-275 -272c-8 -10 -12 -21 -12 -33c0 -13 4 -23 12 -31z" />
    <glyph glyph-name="uniF067" unicode="&#xf067;" horiz-adv-x="1536" 
d="M0 840v-144c0 -55 41 -94 96 -94h506v-508c0 -52 42 -94 94 -94h144c52 0 94 41 94 96v506h508c52 0 94 42 94 94v144c0 52 -42 94 -94 94h-508v508c0 52 -42 94 -94 94h-144c-55 0 -94 -41 -94 -96v-506h-508c-52 0 -94 -42 -94 -94z" />
    <glyph glyph-name="uniF068" unicode="&#xf068;" horiz-adv-x="1536" 
d="M0 840v-144c0 -55 41 -94 96 -94h1346c52 0 94 42 94 94v144c0 52 -42 94 -94 94h-1348c-52 0 -94 -42 -94 -94z" />
    <glyph glyph-name="uniF069" unicode="&#xf069;" horiz-adv-x="1427" 
d="M47 961l334 -193l-334 -193c-47 -27 -59 -82 -35 -129l72 -124c27 -47 84 -62 131 -35l332 192v-385c0 -52 41 -94 96 -94h141c55 0 97 41 97 96v383l331 -192c47 -25 104 -12 131 35l72 124c25 47 12 102 -35 129l-333 193l333 193c47 27 60 82 33 129l-70 124
c-27 47 -84 59 -131 35l-331 -192v385c0 52 -42 94 -97 94h-141c-55 0 -96 -41 -96 -96v-383l-332 192c-47 25 -104 12 -131 -35l-72 -124c-27 -47 -12 -102 35 -129z" />
    <glyph glyph-name="uniF06A" unicode="&#xf06a;" horiz-adv-x="1597" 
d="M0 768c0 -221 89 -421 234 -565c144 -145 344 -234 565 -234s420 89 565 234c145 144 233 344 233 565s-88 421 -233 566c-145 144 -344 233 -565 233s-421 -89 -565 -233c-145 -145 -234 -345 -234 -566zM686 535l-14 739c0 13 11 31 30 31h193c10 -1 18 -4 23 -9
c5 -8 8 -15 8 -22l-17 -739c0 -17 -14 -29 -30 -29h-162c-18 0 -28 10 -31 29zM680 236v174c0 16 13 30 29 30h180c16 0 31 -14 31 -30v-174c0 -17 -15 -31 -31 -31h-180c-17 0 -29 15 -29 31z" />
    <glyph glyph-name="uniF06B" unicode="&#xf06b;" horiz-adv-x="1880" 
d="M0 979v-391c0 -23 18 -39 39 -39h119v-432c0 -63 51 -117 116 -117h1332c65 0 118 54 118 117v432h117c23 0 39 18 39 39v391c0 21 -18 39 -39 39h-538c76 0 145 31 194 80s80 118 80 194c0 77 -31 146 -80 195s-118 80 -194 80c-83 0 -158 -34 -205 -94l-158 -203
l-158 203c-45 60 -123 94 -204 94c-77 0 -146 -31 -195 -80s-80 -119 -80 -195s31 -145 80 -194s119 -80 195 -80h-539c-21 0 -39 -18 -39 -39zM815 1176h-237c-67 0 -117 51 -117 116s52 119 117 119c43 0 73 -26 86 -39zM1065 1176l152 196c13 13 42 39 86 39
c65 0 116 -54 116 -119s-51 -116 -116 -116h-238zM743 221v797h394v-797c0 -44 -36 -80 -80 -80h-234c-43 0 -80 36 -80 80z" />
    <glyph glyph-name="uniF06C" unicode="&#xf06c;" horiz-adv-x="1916" 
d="M129 -31h4c26 0 47 10 64 31c7 9 14 20 23 33c16 24 30 46 47 75c8 14 17 28 26 41c19 26 38 49 51 52c28 0 68 -24 107 -45c29 -17 59 -34 90 -45c102 -36 204 -54 307 -54c157 0 313 41 467 123c326 169 519 415 579 740c47 232 23 427 -65 604c-13 27 -41 43 -72 43
c-23 0 -43 -3 -58 -9c-32 -13 -57 -33 -81 -61l-39 -41c-44 -47 -116 -71 -198 -83s-174 -13 -255 -13c-141 -3 -274 -2 -383 -41c-163 -57 -321 -163 -430 -306c-109 -144 -166 -325 -133 -538c5 -27 13 -47 21 -63c5 -13 9 -21 10 -25s1 -8 0 -12c-8 -31 -39 -55 -78 -86
c-47 -39 -100 -83 -127 -154c-11 -27 -8 -53 10 -78c3 -11 13 -32 30 -51s44 -34 83 -37zM422 567c133 156 274 264 430 332s328 98 524 90c47 -3 81 -37 78 -84c-3 -44 -40 -81 -84 -76c-175 5 -320 -17 -454 -76s-253 -156 -373 -292c-33 -36 -86 -32 -113 -8
c-36 29 -39 78 -8 114z" />
    <glyph glyph-name="uniF06D" unicode="&#xf06d;" horiz-adv-x="1445" 
d="M0 442c0 -144 71 -261 197 -343s307 -130 526 -130s401 48 526 130s197 198 197 343c0 164 -88 351 -236 492c-8 11 -20 15 -35 13c-32 -4 -40 -34 -32 -50c3 -21 7 -90 2 -165s-25 -159 -74 -216c-73 -84 -309 -104 -309 57c0 64 49 115 112 115c47 0 86 -26 105 -67
c5 -17 25 -26 41 -23c21 4 31 17 31 39c0 125 -18 214 -46 283c-29 68 -71 121 -120 178c-39 42 -62 87 -71 136c-17 97 -6 183 15 237c10 27 15 41 15 42c5 15 0 35 -13 46c-15 12 -30 12 -47 0c-1 -2 -16 -15 -43 -39c-27 -25 -60 -60 -98 -107
c-76 -93 -167 -224 -220 -384s-74 -347 -9 -552c-31 8 -57 24 -78 49c-36 47 -48 116 -51 186s7 138 18 185c3 9 3 18 0 29c-11 24 -52 29 -65 8c-148 -143 -238 -328 -238 -492z" />
    <glyph glyph-name="uniF06E" unicode="&#xf06e;" 
d="M25 641c103 -167 239 -301 394 -392c155 -92 326 -140 503 -140c180 0 351 49 504 139c152 90 288 224 395 393c29 49 31 112 0 164c-107 169 -243 302 -395 393c-153 91 -324 139 -504 139c-179 0 -348 -48 -503 -140s-290 -225 -394 -392c-17 -26 -25 -54 -25 -83
s8 -56 25 -81zM614 813c0 81 35 159 88 212c52 53 130 87 211 87c33 0 58 -24 58 -57c0 -31 -25 -58 -58 -58c-103 0 -184 -80 -184 -184c0 -29 -24 -57 -57 -57s-58 26 -58 57zM330 938c67 62 139 113 217 152c-57 -77 -94 -173 -94 -277c0 -128 50 -241 135 -325
c84 -85 197 -136 325 -136c127 0 242 51 327 136c84 84 134 197 134 325c0 115 -40 214 -108 293c172 -79 317 -211 424 -383c-88 -140 -201 -257 -332 -336s-277 -125 -436 -125s-305 46 -436 125c-132 79 -244 197 -332 336c50 81 109 152 176 215z" />
    <glyph glyph-name="uniF070" unicode="&#xf070;" 
d="M1219 1516l-89 -158c-68 13 -137 24 -208 24c-179 0 -348 -48 -503 -139c-155 -92 -290 -226 -394 -393c-17 -26 -25 -54 -25 -83s8 -56 25 -81c125 -199 294 -347 487 -438l-66 -115c-11 -19 -4 -42 15 -53l135 -76c8 -3 14 -4 18 -4c5 0 8 1 11 2c11 3 18 9 22 18
l774 1383c12 19 3 42 -16 53l-133 76c-11 5 -21 6 -29 2c-11 -3 -19 -9 -24 -18zM1016 313l-88 -159c357 3 680 193 893 532c29 49 31 112 0 164c-88 139 -195 250 -318 338l-76 -137c103 -75 190 -170 263 -283c-159 -253 -395 -422 -674 -455zM614 858c0 81 35 159 88 212
c52 53 130 87 211 87c33 0 58 -24 58 -57c0 -31 -25 -58 -58 -58c-103 0 -184 -80 -184 -184c0 -29 -24 -57 -57 -57s-58 26 -58 57zM643 485l-57 -104c-175 79 -323 212 -432 387c100 164 237 288 393 369c-57 -80 -94 -175 -94 -279c0 -156 75 -289 190 -373zM1366 940
l-285 -510c85 33 159 93 211 166s82 163 82 262c0 31 -3 55 -8 82z" />
    <glyph glyph-name="uniF071" unicode="&#xf071;" horiz-adv-x="1775" 
d="M791 1497l-768 -1331c-15 -21 -23 -47 -23 -74c0 -65 62 -92 119 -92h1538c57 0 119 27 119 92c0 28 -10 53 -23 74l-770 1331c-21 36 -52 70 -96 70s-75 -34 -96 -70zM782 481l-12 633c0 19 14 35 35 35h166c19 0 35 -16 35 -35l-15 -633c0 -19 -16 -35 -35 -35h-139
c-19 0 -35 16 -35 35zM776 168v147c0 23 16 37 35 37h154c21 0 34 -16 34 -37v-147c1 -23 -11 -35 -34 -35h-154c-19 0 -35 14 -35 35z" />
    <glyph glyph-name="uniF072" unicode="&#xf072;" horiz-adv-x="1597" 
d="M0 545v-4c1 -23 12 -43 31 -60l274 -207l205 -272c13 -18 33 -28 59 -31h4c23 0 43 8 58 23l31 31c15 15 22 33 22 55v10l-35 281c85 52 180 123 289 219l455 -586c16 -18 36 -28 59 -31h4c23 0 42 8 57 25l58 57c16 17 24 36 24 58c0 9 -2 18 -6 26l-293 803l150 152
c96 92 149 226 149 327c0 47 -9 85 -36 109c-25 25 -61 37 -109 37c-101 0 -235 -57 -328 -150l-151 -149l-803 293c-4 3 -8 4 -13 4h-14c-20 0 -39 -8 -57 -23l-57 -57c-15 -18 -23 -37 -23 -58v-4c0 -23 10 -42 31 -59l583 -457c-95 -107 -167 -202 -219 -286l-280 32
c-1 1 -5 2 -10 2c-24 1 -43 -7 -56 -24l-30 -29c-15 -17 -23 -36 -23 -57z" />
    <glyph glyph-name="uniF073" unicode="&#xf073;" horiz-adv-x="1566" 
d="M0 1264v-1147c0 -63 54 -117 117 -117h1333c63 0 117 54 117 117v1147c0 63 -54 116 -117 116h-39v13c0 40 -12 86 -42 119c-30 32 -79 55 -150 55c-72 0 -119 -23 -149 -55c-30 -33 -44 -78 -44 -119v-13h-49v13c0 40 -13 86 -44 119c-32 32 -80 55 -151 55
s-119 -23 -149 -55c-30 -33 -43 -78 -43 -119v-13h-49v13c0 40 -13 86 -43 119c-30 32 -79 55 -150 55s-119 -23 -149 -55c-30 -33 -43 -78 -43 -119v-13h-39c-63 0 -117 -53 -117 -116zM272 1165v228c0 38 25 57 76 57s76 -19 76 -57v-228c0 -38 -25 -57 -76 -57
s-76 19 -76 57zM709 1165v228c0 37 18 57 73 57s76 -18 76 -57v-228c0 -40 -21 -57 -76 -57s-73 16 -73 57zM1143 1165v228c0 38 25 57 76 57c50 0 75 -19 75 -57v-228c1 -38 -24 -57 -75 -57s-76 19 -76 57zM158 737v252h282v-252h-282zM479 737v252h285v-252h-285z
M803 737v252h284v-252h-284zM1126 737v252h283v-252h-283zM158 446v252h282v-252h-282zM479 446v252h285v-252h-285zM803 446v252h284v-252h-284zM1126 446v252h283v-252h-283zM158 158v250h282v-250h-282zM479 158v250h285v-250h-285zM803 158v250h284v-250h-284zM1126 158
v250h283v-250h-283z" />
    <glyph glyph-name="uniF074" unicode="&#xf074;" 
d="M0 406v-154c0 -21 18 -39 39 -39h219c131 0 238 61 328 153c90 91 166 211 239 328c60 96 121 190 182 260s122 115 193 115h203v-174c0 -55 37 -68 84 -29l334 277c29 24 31 68 0 92l-334 278c-47 39 -84 27 -84 -28v-185h-203c-133 0 -237 -60 -327 -152
s-169 -214 -242 -331c-60 -96 -120 -190 -180 -259s-125 -114 -193 -114h-219c-21 0 -39 -17 -39 -38zM0 1262v-154c0 -21 18 -37 39 -37h219c107 0 196 -106 289 -242c3 6 6 11 9 15s6 9 9 14l117 178c-57 75 -115 140 -185 188s-148 76 -239 76h-219
c-26 1 -39 -12 -39 -38zM1403 449h-203c-107 0 -196 103 -289 239c-3 -7 -6 -12 -10 -17s-7 -11 -10 -18l-56 -87l-57 -85c55 -73 116 -139 185 -187c68 -48 146 -77 237 -77h203v-168c0 -55 37 -68 84 -29l334 279c29 24 31 68 0 92l-334 277c-47 37 -84 26 -84 -29v-190z
" />
    <glyph glyph-name="uniF075" unicode="&#xf075;" horiz-adv-x="1916" 
d="M0 866c0 -229 145 -426 377 -557c-13 -76 -31 -127 -53 -166c-22 -40 -49 -65 -80 -96c-15 -13 -30 -26 -25 -47s22 -34 43 -31c19 3 38 6 55 9s33 5 50 8c157 35 294 99 411 192c59 -8 119 -12 180 -12c265 0 504 78 677 206c173 127 282 301 282 494
c0 195 -109 368 -282 495s-412 206 -677 206s-503 -79 -676 -206s-282 -302 -282 -495z" />
    <glyph glyph-name="uniF076" unicode="&#xf076;" horiz-adv-x="1566" 
d="M0 1497v-391c0 -21 18 -39 39 -39h391c21 0 41 18 41 39v391c0 21 -20 39 -41 39h-391c-21 0 -39 -18 -39 -39zM1098 1497v-391c0 -26 13 -39 39 -39h391c21 0 39 18 39 39v391c0 21 -18 39 -39 39h-391c-23 0 -39 -18 -39 -39zM0 909v-288c0 -181 88 -344 230 -461
s335 -191 554 -191c216 0 412 74 554 191s229 281 229 461v288c0 23 -18 39 -39 39h-391c-26 0 -39 -13 -39 -39v-288c0 -39 -31 -82 -86 -118c-55 -37 -135 -63 -228 -63c-95 0 -172 26 -227 63c-55 36 -86 79 -86 118v288c0 23 -20 39 -41 39h-391c-21 0 -39 -18 -39 -39z
" />
    <glyph glyph-name="uniF077" unicode="&#xf077;" horiz-adv-x="1536" 
d="M29 289l100 -103c39 -37 96 -39 135 0l500 510l508 -510c37 -37 96 -39 135 0l100 103c19 19 29 41 29 66s-10 48 -29 67l-671 674c-39 37 -97 39 -136 0l-673 -674c-39 -39 -37 -94 2 -133z" />
    <glyph glyph-name="uniF078" unicode="&#xf078;" horiz-adv-x="1536" 
d="M29 852l671 -674c39 -37 97 -39 136 0l673 674c39 39 37 94 -2 133l-100 102c-19 19 -42 29 -67 29c-26 0 -49 -10 -68 -29l-500 -509l-508 509c-19 19 -41 29 -67 29s-49 -10 -68 -29l-100 -102c-19 -19 -29 -41 -29 -66s10 -48 29 -67z" />
    <glyph glyph-name="uniF079" unicode="&#xf079;" horiz-adv-x="1916" 
d="M70 1008h249v-920c0 -44 36 -80 80 -80h695l-252 281c-15 13 -21 26 -29 39h-174v680h250c73 0 94 46 39 106l-385 424c-17 19 -38 29 -64 29c-25 0 -46 -10 -63 -29l-385 -424c-55 -60 -34 -106 39 -106zM823 1526l254 -279c11 -13 19 -28 27 -41h174v-678h-250
c-73 0 -94 -46 -39 -106l385 -424c17 -19 38 -29 64 -29c25 0 46 10 63 29l385 424c55 60 34 106 -39 106h-250v918c0 47 -35 80 -79 80h-695z" />
    <glyph glyph-name="uniF07A" unicode="&#xf07a;" 
d="M0 1497v-76c0 -26 13 -39 39 -39h170c21 0 42 -15 47 -36l215 -1016c3 -11 10 -30 20 -48s21 -35 29 -38c20 -8 51 -13 72 -13h919c23 0 39 16 39 37v78c0 21 -18 39 -39 39h-856c-21 0 -42 16 -47 37l-35 168h1084c39 0 68 26 76 59l108 578c9 43 -27 86 -74 86h-1347
l-27 125c-3 11 -10 31 -19 48s-22 33 -30 38c-19 5 -53 12 -74 12h-231c-26 0 -39 -13 -39 -39zM582 115c0 -63 51 -115 114 -115c65 0 117 52 117 115s-52 116 -117 116c-63 0 -114 -53 -114 -116zM1233 115c0 -63 52 -115 115 -115s114 52 114 115s-51 116 -114 116
c-64 0 -115 -53 -115 -116z" />
    <glyph glyph-name="uniF07B" unicode="&#xf07b;" 
d="M0 1421v-1306c0 -63 52 -115 115 -115h1614c63 0 114 52 114 115v1075c0 63 -51 117 -114 117h-693c-63 0 -114 51 -114 114s-52 115 -115 115h-692c-63 0 -115 -52 -115 -115z" />
    <glyph glyph-name="uniF07C" unicode="&#xf07c;" 
d="M0 379l139 428c17 47 48 87 89 116c40 28 88 46 137 46h1228v221c0 63 -51 117 -114 117h-443c-63 0 -114 51 -114 114s-52 115 -115 115h-692c-63 0 -115 -52 -115 -115v-1042zM43 0h1462c31 0 70 26 78 57l260 758h-1476c-31 0 -70 -24 -78 -55z" />
    <glyph glyph-name="uniF07D" unicode="&#xf07d;" horiz-adv-x="798" 
d="M25 311l321 -319c15 -15 32 -23 53 -23s39 8 54 23l319 319c47 47 30 80 -33 80h-202v754h202c63 0 79 33 35 80l-321 319c-15 15 -33 23 -54 23c-20 0 -38 -8 -53 -23l-319 -319c-47 -47 -31 -80 32 -80h203v-754h-203c-63 0 -78 -33 -34 -80z" />
    <glyph glyph-name="uniF07E" unicode="&#xf07e;" horiz-adv-x="1597" 
d="M342 1104l-319 -322c-15 -15 -23 -32 -23 -53c0 -20 8 -38 23 -53l319 -320c47 -45 80 -30 80 33v203h754v-203c0 -63 32 -79 79 -35l320 322c29 29 31 75 0 106l-320 322c-45 44 -79 28 -79 -35v-203h-754v205c0 63 -33 77 -80 33z" />
    <glyph glyph-name="uniF080" unicode="&#xf080;" 
d="M0 1421v-1306c0 -63 54 -115 117 -115h1612c63 0 114 52 114 115v1306c0 63 -51 115 -114 115h-1612c-63 0 -117 -52 -117 -115zM154 154v1228h1536v-1228h-1536zM1333 264h203v922h-203v-922zM649 264h201v776h-201v-776zM993 264h203v592h-203v-592zM307 264h203v363
h-203v-363z" />
    <glyph glyph-name="uniF081" unicode="&#xf081;" horiz-adv-x="1536" 
d="M0 1343v-1150c0 -55 23 -102 57 -136s81 -57 133 -57h1153c52 0 103 23 137 57s56 81 56 136v1150c0 107 -86 193 -193 193h-1153c-51 0 -99 -22 -133 -56s-57 -85 -57 -137zM1303 793h4c29 4 45 -29 26 -48c-31 -34 -74 -53 -129 -57c-32 -104 -105 -193 -200 -256
c-96 -63 -217 -100 -345 -100c-188 0 -351 79 -458 227c-13 14 -11 27 4 39c5 5 12 8 20 8c7 0 14 -3 19 -8c40 -39 96 -62 153 -66c57 -5 115 6 164 39c-22 11 -35 28 -39 50c-1 3 -2 7 -2 14s2 14 6 22c-57 17 -87 60 -92 76c-7 13 -5 24 4 33l13 12
c-37 22 -60 56 -68 101c-3 17 3 28 20 32c-37 41 -50 85 -47 121c7 20 20 30 39 25c115 -44 202 -78 283 -125c15 -7 34 -20 57 -41c39 96 87 186 166 235c11 7 22 7 31 2l2 -2c16 6 32 10 49 13c9 2 17 -1 25 -9c3 -3 5 -5 6 -8c16 1 28 -1 35 -8c14 -13 20 -28 12 -49
c-3 -3 -5 -5 -6 -8s-3 -5 -6 -8c71 -31 130 -102 151 -183c0 -1 0 -3 1 -4s1 -3 1 -4c3 0 5 0 8 -1c2 -1 4 -1 7 -1c32 0 64 11 75 16c13 8 24 7 33 -2c21 -16 9 -46 -22 -77z" />
    <glyph glyph-name="uniF082" unicode="&#xf082;" horiz-adv-x="1536" 
d="M2 1343v-1150c0 -55 23 -102 57 -136s82 -57 134 -57h393v643h-103c-19 0 -32 15 -32 31v168c-1 21 10 32 32 32h103v84c0 195 100 293 301 293c65 1 128 -7 188 -24c19 -4 28 -16 25 -35l-23 -162c-3 -11 -7 -18 -14 -22c-5 -5 -17 -7 -25 -7c-37 9 -81 15 -114 15
c-57 0 -64 -13 -64 -68v-74h184c17 0 31 -15 31 -34l-12 -168c0 -17 -15 -29 -31 -29h-172v-643h486c51 0 102 23 136 57s56 81 56 136v1150c0 107 -85 193 -192 193h-1153c-52 0 -100 -22 -134 -56s-57 -85 -57 -137z" />
    <glyph glyph-name="uniF083" unicode="&#xf083;" 
d="M0 1421v-1306c0 -63 52 -115 115 -115h1614c63 0 114 52 114 115v1306c0 63 -51 115 -114 115h-1614c-63 0 -115 -52 -115 -115zM266 1341v93h316v-93h-316zM154 1145v139h565l14 92h957v-231h-1536zM557 709c0 101 41 193 107 258s157 106 258 106
c100 0 192 -41 258 -106s106 -157 106 -258s-40 -192 -106 -258s-157 -107 -258 -107s-192 41 -258 107s-107 157 -107 258zM672 709c0 -69 28 -133 73 -177c44 -45 109 -73 177 -73s132 28 177 73c45 44 72 109 72 177s-27 132 -72 177s-109 72 -177 72
c-69 0 -133 -27 -177 -72c-45 -45 -73 -109 -73 -177zM922 805v-2c-52 0 -95 -39 -95 -94c0 -21 -19 -41 -43 -41c-21 0 -41 20 -41 41c0 97 80 180 179 180c24 0 43 -19 43 -43c0 -23 -19 -41 -43 -41zM154 160v114h1536v-114h-1536z" />
    <glyph glyph-name="uniF084" unicode="&#xf084;" horiz-adv-x="1916" 
d="M1458 477l-414 297c33 67 56 135 68 204c24 138 5 267 -55 375s-172 191 -312 209c-141 18 -287 -25 -422 -120c-136 -95 -245 -249 -293 -408s-40 -310 23 -438c31 -65 76 -117 133 -158c101 -73 227 -94 353 -69c126 24 252 91 356 198l803 -573c57 -41 134 -28 178 29
c41 57 26 137 -31 178l-248 178l101 139l102 -76c20 -13 47 -8 60 11l49 69c13 20 10 47 -11 60l-344 247c-21 15 -46 9 -59 -10l-51 -69c-13 -20 -9 -47 10 -60l105 -74zM232 849c6 28 18 54 36 79c52 71 134 101 213 88c-37 71 -36 158 13 229c35 49 86 80 142 89
s114 -2 163 -38c49 -35 80 -86 89 -142s-2 -114 -38 -163c-52 -71 -134 -99 -213 -86c19 -35 28 -73 27 -114c-3 -82 -56 -144 -105 -174s-105 -40 -161 -28s-107 50 -137 99s-41 105 -29 161z" />
    <glyph glyph-name="uniF085" unicode="&#xf085;" horiz-adv-x="1916" 
d="M1573 1487h-14c-20 3 -39 -1 -58 -6c-3 3 -7 8 -13 15c-12 15 -29 33 -41 45c-6 6 -10 9 -13 9s-12 -5 -28 -14c-32 -19 -72 -45 -100 -67c-15 -11 -22 -19 -22 -23c0 -5 8 -22 17 -41l12 -27s7 -15 8 -18c-14 -21 -24 -42 -31 -64c-4 -1 -11 -3 -22 -4
c-22 -3 -47 -8 -63 -16c-9 -4 -13 -8 -13 -12c4 -48 5 -84 4 -109c-3 -49 5 -67 34 -71c15 -2 40 -4 75 -5c10 -24 23 -44 38 -59c-1 -3 -3 -8 -6 -17l-9 -28s-6 -18 -8 -26c-2 -9 -3 -14 -3 -15c0 -4 8 -11 24 -20c31 -20 71 -40 106 -55c17 -7 27 -11 30 -11s7 3 13 10
c12 13 25 33 36 50c5 8 9 13 12 16h14c20 -3 39 1 58 6c3 -3 7 -8 13 -15c12 -16 29 -33 42 -45c7 -7 11 -10 14 -10c1 0 10 5 26 15c32 19 72 45 102 69c15 11 22 19 22 23c0 1 -2 6 -5 14s-7 17 -12 27c-5 9 -10 18 -14 27c-4 8 -7 13 -8 16c12 18 22 39 31 63
c4 1 12 3 23 4s21 3 32 6c21 5 41 15 41 23c-3 47 -4 82 -3 107c1 48 -3 66 -34 70c-15 2 -40 4 -74 7c-13 23 -26 43 -39 60c3 5 10 25 15 45c3 9 5 18 8 26c3 7 4 12 4 15c0 4 -8 11 -23 20c-32 19 -74 39 -109 55c-17 7 -27 11 -30 11s-7 -3 -12 -10s-11 -15 -17 -24
c-13 -17 -27 -37 -30 -42zM0 981v-180c0 -5 8 -10 23 -14c30 -9 70 -14 106 -18c18 -2 30 -4 37 -5c11 -34 24 -65 39 -94c-5 -8 -27 -38 -49 -66l-30 -40c-9 -13 -13 -20 -13 -21c0 -4 7 -14 21 -30c27 -32 63 -70 95 -97c15 -14 24 -21 27 -21l10 2c39 33 80 64 121 95
c29 -17 58 -29 88 -37c0 -7 1 -20 3 -37c4 -36 9 -78 19 -108c5 -15 10 -23 15 -23h178c5 0 11 8 16 23s9 32 12 52c7 39 11 80 11 93c29 9 58 22 88 37l26 -20l42 -32c15 -12 28 -22 41 -31c12 -9 19 -14 20 -14c4 0 14 7 30 21c31 27 70 65 98 97c13 16 20 26 20 30l-2 10
c-18 19 -34 39 -48 59c-15 19 -30 39 -45 60c15 30 28 59 37 88c5 1 17 3 36 4c37 3 78 10 108 19c15 4 22 9 22 16v178c0 5 -7 10 -22 14c-30 8 -71 16 -107 20c-18 2 -30 4 -37 5c-11 35 -24 66 -39 92c3 4 9 13 20 26c20 26 44 56 62 81c9 12 13 19 13 22
c0 4 -7 14 -21 30c-29 31 -66 67 -97 96c-16 14 -25 21 -28 21l-8 -4c-19 -16 -39 -31 -60 -46l-63 -46c-27 15 -56 27 -86 35c-1 5 -3 18 -5 37c-4 39 -8 78 -18 110c-5 15 -11 23 -16 23h-178c-7 0 -12 -8 -16 -23c-5 -16 -8 -33 -11 -52c-5 -38 -10 -84 -10 -95
c-31 -8 -61 -20 -90 -37c-3 3 -11 10 -24 21c-28 22 -60 47 -84 64c-13 9 -20 13 -21 13c-4 0 -14 -7 -29 -20c-32 -28 -70 -66 -97 -97c-14 -16 -21 -26 -21 -30l4 -10c16 -19 32 -39 47 -59l45 -62c-17 -26 -29 -55 -37 -88c-7 0 -19 -1 -37 -3c-36 -4 -78 -8 -108 -18
c-15 -5 -23 -11 -23 -16zM1446 1206c0 60 47 109 110 109c61 0 109 -48 109 -111c0 -60 -48 -108 -111 -108c-60 0 -108 47 -108 110zM420 889c0 101 81 182 182 182c49 0 95 -21 128 -53c32 -33 52 -80 52 -129s-20 -95 -52 -127c-33 -33 -79 -53 -128 -53s-96 20 -128 53
c-33 32 -54 78 -54 127zM1329 719l-8 -4c-4 -4 -13 -12 -28 -24c-30 -25 -66 -55 -90 -81c-13 -13 -19 -21 -19 -24c0 -5 11 -26 24 -45c12 -20 26 -40 31 -45c-13 -28 -20 -45 -25 -76c-4 -1 -11 -4 -22 -7c-21 -7 -46 -18 -64 -27c-9 -5 -14 -9 -14 -13c0 -3 2 -12 5 -29
s8 -35 13 -55c5 -21 9 -40 13 -58c4 -19 7 -31 8 -36c1 -7 4 -11 9 -11h14c29 0 59 1 90 4c13 -21 30 -41 51 -57l-9 -46c-3 -17 -5 -33 -5 -48c0 -7 9 -14 27 -22c35 -17 83 -32 122 -42c19 -5 31 -8 35 -8c8 0 19 20 31 40c11 20 21 44 24 52c27 5 53 11 78 19
c3 -3 8 -7 17 -14c8 -7 16 -15 25 -22c17 -15 37 -28 42 -28l8 4c4 5 14 13 29 26c30 25 65 56 90 82c12 13 18 20 18 23s-2 9 -7 18c-9 17 -22 38 -34 55c-7 8 -11 14 -12 18c9 22 17 46 23 71c4 1 12 4 23 9l32 12c21 8 43 18 43 26c0 6 -2 19 -5 40c-7 40 -17 89 -30 125
c-7 17 -13 26 -18 26c-31 0 -64 -1 -97 -4c-13 21 -30 41 -51 57c3 15 6 31 10 47c3 16 5 32 5 47c0 7 -9 15 -27 23c-36 16 -84 33 -124 42c-20 5 -31 7 -34 7c-4 0 -9 -4 -14 -12c-5 -9 -11 -18 -17 -28c-13 -20 -23 -44 -26 -52c-27 -5 -53 -11 -76 -19c-3 3 -8 8 -16 15
l-26 21c-17 15 -37 28 -42 28zM1397 367c0 65 54 118 119 118c68 0 120 -53 120 -118c0 -69 -55 -121 -120 -121c-67 0 -119 56 -119 121z" />
    <glyph glyph-name="uniF086" unicode="&#xf086;" horiz-adv-x="1916" 
d="M178 295v-2c5 -13 19 -28 35 -25c15 3 30 5 44 8c13 2 27 4 40 7c126 28 238 80 336 155c47 -5 96 -10 145 -10c216 0 410 64 551 167c140 103 227 246 227 402c0 159 -87 300 -227 403c-141 103 -335 167 -551 167s-409 -64 -549 -167c-141 -103 -229 -244 -229 -403
c0 -185 119 -348 307 -452c-11 -63 -27 -103 -44 -134c-17 -32 -40 -55 -64 -79c-15 -13 -26 -21 -21 -37zM1739 -6v2c5 13 -8 24 -21 37c-24 24 -44 47 -63 79c-20 31 -34 71 -45 134c188 104 307 267 307 452c0 148 -79 279 -207 383c4 -29 6 -57 6 -84
c0 -204 -103 -386 -271 -517c-168 -132 -404 -212 -667 -212c-34 0 -68 2 -102 6c-4 -3 -8 -5 -13 -8s-10 -5 -14 -8c135 -79 302 -129 490 -129c49 0 98 5 145 10c96 -73 208 -128 336 -155c13 -3 27 -5 41 -7c13 -3 28 -5 43 -8c16 -3 32 9 35 25z" />
    <glyph glyph-name="uniF087" unicode="&#xf087;" horiz-adv-x="1597" 
d="M0 836v-643c0 -67 54 -119 119 -119h375c49 0 96 -8 143 -23c46 -15 92 -30 139 -43c93 -24 191 -39 287 -39c93 0 197 16 279 61c82 44 142 116 147 228c55 60 78 144 65 223c27 43 41 90 41 142c0 31 -6 61 -18 90c13 39 20 75 20 114c0 88 -37 144 -92 177
c-55 32 -127 45 -200 45c-23 0 -47 -1 -70 -2c-23 -2 -47 -4 -70 -5c33 72 60 141 60 220c0 76 -27 154 -74 211s-116 94 -197 94c-68 0 -106 -22 -128 -57c-22 -36 -29 -83 -36 -131c-4 -24 -8 -48 -13 -71c-9 -48 -32 -95 -89 -139c-29 -23 -54 -46 -76 -69
c-24 -25 -46 -49 -67 -76c-25 -31 -42 -51 -78 -70h-348c-65 0 -119 -53 -119 -118zM492 193v643h2c25 11 47 23 65 36c36 26 63 56 90 90s75 85 135 134s100 120 114 206c7 43 14 84 22 123c1 6 2 10 3 13c1 5 11 10 20 10h11c49 0 87 -26 112 -61c25 -36 40 -81 40 -125
c0 -67 -24 -119 -50 -169s-52 -98 -52 -153c37 -16 79 -18 120 -18c30 0 60 1 91 3c30 2 60 3 90 3c35 0 80 0 114 -14s60 -40 60 -87c0 -45 -20 -81 -41 -120c19 -20 39 -47 39 -78c0 -49 -20 -90 -60 -123c14 -19 21 -42 21 -68c0 -49 -25 -106 -72 -127
c3 -13 4 -24 4 -37c0 -79 -47 -124 -109 -151c-62 -28 -138 -33 -198 -33c-115 0 -211 27 -301 52c-90 24 -177 51 -270 51zM236 276c0 44 32 80 79 80c44 0 80 -36 80 -80c0 -45 -36 -79 -80 -79c-47 0 -79 32 -79 79z" />
    <glyph glyph-name="uniF088" unicode="&#xf088;" horiz-adv-x="1597" 
d="M1479 1063h-375c-49 0 -97 8 -143 23c-47 15 -93 29 -140 42c-92 25 -190 39 -286 39c-93 0 -198 -15 -279 -60s-142 -116 -147 -228c-55 -60 -79 -145 -66 -224c-27 -42 -41 -89 -41 -141c0 -31 6 -61 18 -90c-13 -39 -20 -76 -20 -115c0 -87 37 -143 92 -175
c55 -33 128 -46 201 -46c23 0 47 1 70 2s46 3 69 4c-32 -71 -59 -140 -59 -219c0 -76 28 -154 74 -211s115 -94 196 -94c51 0 87 11 108 34c42 45 54 115 62 191c8 75 39 128 96 173c29 23 54 46 76 69c25 24 47 49 68 76c24 29 41 50 77 69h349c65 0 118 54 118 119v643
c0 65 -53 119 -118 119zM1106 301h-2c-27 -11 -49 -22 -66 -35c-34 -26 -62 -56 -89 -90c-28 -34 -76 -86 -136 -135s-98 -119 -112 -206c-7 -43 -15 -85 -23 -124c-1 -5 -2 -9 -3 -12c-1 -5 -10 -10 -20 -9c-5 1 -9 1 -12 1c-49 0 -85 24 -111 60c-26 35 -40 80 -40 124
c0 65 24 118 50 169s52 98 52 153c-39 16 -80 18 -121 18c-30 0 -60 -1 -89 -3s-60 -3 -91 -3c-36 0 -79 1 -113 14s-61 39 -61 86s20 82 41 121c-20 19 -39 47 -39 78c0 49 20 90 59 123c-13 19 -20 41 -20 67c0 49 24 106 71 127c-3 15 -4 24 -4 37c0 80 49 127 110 153
s138 34 198 34c115 0 211 -26 301 -52s174 -53 270 -53v-643zM1202 860c0 47 36 80 80 80c47 0 80 -33 80 -80c0 -44 -33 -80 -80 -80c-44 0 -80 36 -80 80z" />
    <glyph glyph-name="uniF089" unicode="&#xf089;" horiz-adv-x="837" 
d="M27 899l364 -356l-86 -504c-11 -63 25 -88 80 -57l453 237v1348c-18 0 -35 -14 -50 -41l-227 -459l-506 -74c-60 -8 -75 -50 -28 -94z" />
    <glyph glyph-name="uniF08A" unicode="&#xf08a;" horiz-adv-x="1802" 
d="M958 -8l615 612c1 3 14 17 39 43s51 60 79 103c56 84 111 198 111 323c0 183 -63 307 -155 385c-93 78 -215 109 -332 109c-88 0 -169 -32 -240 -75s-133 -97 -174 -138c-41 40 -101 95 -172 138s-156 75 -240 75c-120 0 -241 -31 -333 -109c-93 -78 -156 -202 -156 -385
c0 -63 12 -122 35 -177c47 -111 107 -197 155 -249c23 -26 36 -40 39 -41l617 -614c15 -15 33 -23 55 -23c21 0 40 8 57 23zM340 721l-28 29c-19 20 -40 47 -63 80c-45 66 -89 152 -89 243c0 140 43 222 107 271c64 48 146 63 222 63c68 0 144 -39 208 -87
s119 -103 143 -134c16 -21 36 -31 61 -31s45 10 62 31c24 29 78 86 142 134s139 87 210 87c73 0 156 -15 220 -63c64 -49 107 -132 107 -271c0 -45 -9 -88 -27 -130c-37 -85 -85 -153 -124 -193l-29 -29l-561 -559z" />
    <glyph glyph-name="uniF08B" unicode="&#xf08b;" horiz-adv-x="1689" 
d="M0 1229v-922c0 -84 35 -160 91 -216s132 -91 216 -91h461v193h-461c-63 0 -114 51 -114 114v922c0 63 51 114 114 114h461v193h-461c-84 0 -160 -35 -216 -91s-91 -132 -91 -216zM508 952v-368c0 -44 34 -78 78 -78h428v-291c0 -27 13 -46 39 -57c8 -3 15 -4 22 -4
c17 0 31 6 43 18l553 553c25 21 24 62 0 86l-553 553c-35 37 -104 12 -104 -43v-293h-428c-44 0 -78 -32 -78 -76z" />
    <glyph glyph-name="uniF08C" unicode="&#xf08c;" horiz-adv-x="1536" 
d="M0 1343v-1150c0 -107 86 -193 193 -193h1150c52 0 103 23 137 57s56 81 56 136v1150c0 107 -86 193 -193 193h-1150c-55 0 -102 -22 -136 -56s-57 -85 -57 -137zM207 1192c0 73 62 135 135 135c76 0 137 -62 137 -135c0 -76 -61 -137 -137 -137c-73 0 -135 61 -135 137z
M580 240v706c0 16 15 29 28 29h195c29 0 28 -32 28 -53c55 55 128 71 201 71c180 0 297 -88 297 -276v-477c0 -15 -16 -29 -29 -29h-204c-17 0 -29 16 -29 29v432c0 71 -21 110 -100 110c-101 0 -129 -68 -129 -159v-383c0 -15 -13 -29 -29 -29h-201c-13 0 -28 16 -28 29z
M213 240v706c0 16 16 29 29 29h200c19 0 29 -10 29 -29v-706c0 -15 -13 -29 -29 -29h-200c-15 0 -29 16 -29 29z" />
    <glyph glyph-name="uniF08D" unicode="&#xf08d;" horiz-adv-x="1916" 
d="M1092 1047l-301 225c5 55 1 104 -12 149c-28 88 -103 146 -195 147c-93 1 -197 -40 -298 -122s-190 -204 -239 -324s-60 -232 -31 -319c14 -44 38 -79 72 -105c71 -52 167 -52 268 -8l303 -223c-37 -167 -15 -314 86 -387c75 -55 172 -61 279 -27s218 108 317 215
l517 -293c5 -4 11 -6 18 -6c28 1 62 37 29 70l-428 410c73 125 111 254 114 365s-31 204 -104 259c-101 76 -247 58 -395 -26zM178 889c13 16 39 21 58 8c8 -3 32 9 72 35s86 74 138 143c15 20 39 21 58 8c16 -13 21 -38 8 -57c-41 -55 -90 -107 -139 -145s-96 -64 -137 -64
c-19 0 -36 5 -50 14c-16 15 -21 39 -8 58zM829 483l-364 271c21 13 44 32 65 51l347 -258c9 -7 15 -15 16 -25c3 -21 -14 -47 -41 -47c-10 0 -18 3 -23 8zM838 268c13 20 36 24 55 11c9 -9 25 -10 48 -4c23 5 49 17 78 36c59 36 130 100 198 191c13 19 39 21 55 8
c19 -13 21 -39 8 -55c-55 -71 -117 -138 -181 -186s-129 -79 -184 -79c-27 0 -50 8 -69 23c-20 13 -21 39 -8 55z" />
    <glyph glyph-name="uniF08E" unicode="&#xf08e;" 
d="M0 1229v-922c0 -84 35 -160 90 -216s133 -91 217 -91h1075c85 0 160 35 216 91s92 132 92 216v271c-72 3 -138 28 -193 69v-340c0 -63 -52 -114 -115 -114h-1075c-63 0 -114 51 -114 114v922c0 63 51 114 114 114h582c-4 17 -6 33 -6 48v88c0 11 1 21 2 30s3 18 4 27
h-582c-84 0 -162 -35 -217 -90s-90 -133 -90 -217zM709 481l79 -80c11 -11 25 -16 42 -16c16 0 29 5 40 16l772 770v-268c0 -32 25 -57 58 -57h86c29 -3 57 24 57 57v576c0 29 -26 57 -57 57h-576c-32 0 -60 -26 -57 -57v-86c0 -33 24 -58 57 -58h269l-770 -772
c-23 -21 -21 -61 0 -82z" />
    <glyph glyph-name="uniF090" unicode="&#xf090;" horiz-adv-x="1689" 
d="M922 0h460c85 0 160 35 216 91s92 132 92 216v922c0 84 -36 162 -92 217s-132 90 -216 90h-460v-193h460c64 0 115 -51 115 -114v-922c0 -63 -52 -114 -115 -114h-460v-193zM0 952v-368c0 -44 34 -78 78 -78h428v-291c0 -27 12 -46 37 -57c11 -3 19 -4 24 -4
c17 0 31 6 43 18l553 553c23 21 21 62 0 86l-553 553c-19 19 -41 23 -67 14c-25 -11 -37 -30 -37 -57v-293h-428c-44 0 -78 -32 -78 -76z" />
    <glyph glyph-name="uniF091" unicode="&#xf091;" horiz-adv-x="1689" 
d="M0 1229v-187c0 -84 64 -178 167 -257c103 -80 244 -146 400 -173c72 -13 133 -60 133 -112c0 -47 -26 -63 -56 -82c-30 -20 -61 -37 -64 -84v-21c0 -8 1 -17 4 -26c3 -10 -6 -18 -25 -24s-42 -12 -68 -18c-53 -12 -114 -30 -145 -57c-16 -13 -26 -57 -29 -104
c-3 -44 8 -84 35 -84h985c28 0 38 40 35 84c-3 47 -13 91 -29 104c-29 28 -93 45 -146 57c-27 6 -49 12 -67 19c-19 6 -27 14 -24 23c4 16 5 32 2 47c-5 47 -34 64 -62 84c-29 19 -57 35 -57 82c0 52 63 99 131 112c159 25 301 91 403 172c102 80 167 174 167 258v187
c0 44 -34 76 -78 76h-324c1 9 2 19 2 28v25c0 71 -4 117 -19 143s-43 35 -87 35h-678c-47 0 -72 -9 -87 -35s-20 -72 -20 -143v-4v-24s1 -17 2 -25h-323c-44 0 -78 -32 -78 -76zM154 1042v109h260c19 -125 45 -258 78 -365c-104 33 -188 83 -247 132c-59 48 -91 97 -91 124z
M1536 1151v-109c0 -27 -32 -76 -91 -124c-59 -49 -143 -99 -247 -132c33 107 60 240 76 365h262z" />
    <glyph glyph-name="uniF092" unicode="&#xf092;" horiz-adv-x="1536" 
d="M0 1343v-1150c0 -107 86 -193 193 -193h317c3 19 3 39 2 60c-1 20 -2 40 -2 59c0 5 0 11 1 17c1 5 1 11 1 18c-30 -7 -57 -11 -80 -11c-57 0 -100 9 -127 26c-55 35 -78 86 -101 139c-12 27 -31 50 -57 71c-8 7 -18 13 -31 19s-20 17 -20 32c0 13 32 14 37 14
c65 0 100 -46 136 -91c35 -45 74 -91 147 -91c19 0 36 3 51 8s31 10 49 15c16 55 40 104 92 125c-248 29 -377 138 -377 395c0 87 28 174 88 242c-8 29 -10 59 -10 90c0 55 10 129 41 176h12c29 1 56 -1 80 -8c47 -14 89 -38 130 -66c20 -14 42 -27 65 -39c44 5 87 8 131 8
s87 -3 131 -8c23 13 45 26 66 40c20 13 41 26 62 37c43 23 90 39 147 36h12c29 -47 41 -121 41 -176c0 -31 -2 -59 -10 -90c60 -69 90 -154 90 -242c0 -263 -141 -370 -392 -397c31 -13 52 -35 65 -66c25 -63 31 -143 28 -220c-1 -39 -2 -71 -2 -97v-25h337
c52 0 103 23 137 57s56 81 56 136v1150c0 107 -86 193 -193 193h-1150c-55 0 -102 -22 -136 -56s-57 -85 -57 -137z" />
    <glyph glyph-name="uniF093" unicode="&#xf093;" 
d="M385 954h307v-499c0 -44 32 -78 76 -78h307c44 0 78 34 78 78v499h307c41 0 54 23 23 54l-506 505c-15 15 -34 23 -55 23c-22 0 -41 -8 -56 -23l-504 -505c-29 -31 -21 -54 23 -54zM0 653v-614c0 -26 13 -39 39 -39h1765c26 0 39 13 39 39v614c0 23 -18 39 -39 39h-229
c-21 0 -39 -18 -39 -39v-346h-1229v346c0 23 -18 39 -39 39h-229c-21 0 -39 -18 -39 -39z" />
    <glyph glyph-name="uniF094" unicode="&#xf094;" horiz-adv-x="1609" 
d="M1323 1485h-2c-65 0 -123 11 -178 22c-71 15 -140 29 -219 29c-52 0 -104 -7 -164 -23l-2 -2c-57 -15 -109 -32 -156 -51c-25 -9 -48 -18 -71 -27c-46 -18 -93 -41 -133 -63c-41 -22 -78 -49 -107 -79l-45 -46c-17 -13 -32 -26 -45 -45c-39 -52 -72 -105 -99 -160
c-37 -73 -56 -157 -75 -245c-5 -19 -8 -41 -10 -66s-4 -49 -7 -72c-5 -55 -11 -96 -8 -143c1 -27 4 -55 9 -82s9 -54 13 -81c7 -53 7 -101 -6 -142s-22 -94 5 -141c19 -33 59 -60 108 -60h2c27 1 55 6 83 13s54 10 77 10h4c68 0 132 -5 193 -16c60 -11 125 -17 194 -17h31
c101 5 216 9 317 45c99 33 178 80 245 137s122 124 171 189c60 84 110 176 138 281c27 105 31 227 7 366c-3 13 -5 27 -7 42c-4 29 -16 55 -26 77c-5 11 -9 24 -12 39c-8 48 1 96 6 143c7 47 7 106 -24 147c-16 25 -45 31 -78 31c-22 0 -44 -2 -66 -5c-23 -3 -44 -5 -63 -5z
" />
    <glyph glyph-name="uniF095" unicode="&#xf095;" horiz-adv-x="1597" 
d="M0 1169c0 -65 23 -142 55 -218c31 -77 70 -153 103 -208c84 -147 194 -291 319 -412s272 -222 436 -282c96 -39 192 -80 299 -80c52 0 129 20 197 50s128 74 152 126c8 20 18 49 25 79s11 58 11 79c0 11 -1 19 -2 23c-7 13 -20 25 -40 36c-40 20 -47 24 -107 61
s-127 76 -182 106c-28 15 -45 22 -52 22c-36 0 -80 -51 -120 -102c-41 -52 -82 -103 -113 -103c-15 0 -32 6 -50 18l-46 27c-197 112 -329 243 -441 436c-13 23 -43 68 -43 95c0 29 40 60 80 96c39 35 78 76 78 125c0 7 -5 24 -14 53l-68 191c-12 31 -20 53 -24 65
c-3 7 -5 15 -8 26c-3 10 -7 20 -10 30c-7 19 -16 36 -27 44c-12 5 -39 11 -66 12s-57 3 -70 3c-8 0 -17 -1 -26 -2c-10 -1 -19 -1 -27 0c-71 -33 -123 -95 -161 -167c-38 -73 -58 -156 -58 -229z" />
    <glyph glyph-name="uniF096" unicode="&#xf096;" 
d="M0 1229v-922c0 -84 35 -160 91 -216s132 -91 216 -91h1075c85 0 160 35 216 91s92 132 92 216v922c0 84 -36 160 -92 216s-132 91 -216 91h-1075c-84 0 -160 -35 -216 -91s-91 -132 -91 -216zM193 307v922c0 63 51 114 114 114h1075c63 0 115 -51 115 -114v-922
c0 -63 -52 -114 -115 -114h-1075c-63 0 -114 51 -114 114z" />
    <glyph glyph-name="uniF097" unicode="&#xf097;" horiz-adv-x="1253" 
d="M0 1421v-1337c0 -63 52 -115 115 -115c31 0 58 11 80 33l432 432l432 -432c22 -22 49 -33 80 -33c63 0 114 52 114 115v1337c0 63 -51 115 -114 115h-1024c-63 0 -115 -52 -115 -115zM158 186v1194h938v-1194l-469 471z" />
    <glyph glyph-name="uniF098" unicode="&#xf098;" horiz-adv-x="1536" 
d="M0 1343v-1150c0 -107 86 -193 193 -193h1150c52 0 103 23 137 57s56 81 56 136v1150c0 107 -86 193 -193 193h-1150c-55 0 -102 -22 -136 -56s-57 -85 -57 -137zM193 1040c-4 69 15 135 44 188c28 53 69 94 113 115h8c5 0 13 1 24 2c23 2 52 -1 77 -5c24 -4 39 -5 47 -37
c4 -17 8 -30 12 -41c9 -29 18 -54 27 -76l28 -76l16 -42s8 -27 5 -38c-1 -15 -8 -29 -19 -43c-24 -28 -37 -46 -67 -66c-15 -11 -24 -22 -25 -34c-5 -23 16 -55 29 -76c79 -133 176 -234 317 -313c13 -7 25 -15 38 -23c24 -16 47 -18 80 21c16 19 28 34 36 43
c9 11 22 25 38 44c15 18 31 27 46 27c12 0 25 -4 38 -13l36 -24l68 -38l71 -41c11 -7 23 -14 37 -21c13 -7 21 -14 24 -22c7 -15 1 -42 -4 -67s-13 -54 -18 -65c-19 -41 -66 -70 -102 -86c-55 -29 -119 -49 -203 -36c-52 8 -109 32 -164 53c-52 19 -102 45 -143 69
c-164 104 -303 259 -402 431c-21 37 -46 86 -67 135c-23 49 -42 108 -45 155z" />
    <glyph glyph-name="uniF099" unicode="&#xf099;" 
d="M0 399c0 -7 3 -15 8 -26c172 -240 448 -367 740 -367c183 0 373 52 533 148c160 95 286 239 343 424c28 3 84 15 131 37s88 48 88 87c0 36 -30 51 -61 46c19 19 53 57 53 88c0 24 -21 47 -45 47c-11 0 -30 -5 -57 -16s-57 -17 -88 -17c-11 0 -19 1 -23 2
c-36 133 -122 250 -250 307c18 15 27 32 27 53c0 47 -41 66 -82 66c-9 18 -24 27 -43 27c-23 0 -63 -13 -84 -21c-6 5 -15 8 -27 8c-11 0 -19 -2 -24 -6c-65 -39 -118 -102 -162 -170s-80 -145 -107 -213c-29 25 -59 49 -92 68l-98 48c-93 45 -201 92 -289 128
c-44 18 -72 27 -84 27c-37 0 -47 -29 -47 -60c0 -65 29 -129 76 -176c-22 -7 -33 -21 -33 -43c0 -65 56 -139 111 -172c-20 -13 -35 -30 -35 -51c0 -31 25 -63 58 -89c32 -26 71 -47 95 -55c-5 -11 -8 -24 -8 -39c0 -43 27 -79 66 -100c-65 -44 -146 -63 -225 -63
c-109 -1 -205 35 -287 108c-11 8 -22 12 -31 12c-27 0 -47 -20 -47 -47z" />
    <glyph glyph-name="uniF09A" unicode="&#xf09a;" horiz-adv-x="790" 
d="M0 1065v-203c0 -21 18 -39 39 -39h125v-784c0 -21 18 -39 39 -39h258c21 0 39 18 39 39v784h207c21 0 38 14 38 35l17 205c0 25 -20 43 -39 43h-223v88c0 68 7 84 78 84c39 0 92 -5 139 -16c10 -3 20 -1 31 6c8 7 13 15 16 26l27 199c3 22 -7 36 -29 43
c-73 21 -150 31 -232 31c-244 -1 -366 -120 -366 -359v-102h-125c-21 0 -39 -20 -39 -41z" />
    <glyph glyph-name="uniF09B" unicode="&#xf09b;" horiz-adv-x="1847" 
d="M147 1163l3 -4c-101 -115 -150 -263 -150 -416c0 -311 93 -505 254 -620s394 -154 670 -154c275 0 505 39 668 154s255 309 255 620c0 153 -48 301 -149 416l2 4v2c19 52 26 109 26 166c0 33 -4 77 -12 122s-21 87 -37 114h-10c-41 0 -77 -4 -110 -12
c-66 -17 -124 -48 -181 -87l-90 -61c-117 33 -242 41 -362 41s-246 -8 -361 -41c-33 21 -63 41 -91 61c-28 19 -57 37 -87 52c-60 30 -124 47 -205 47h-8c-19 -28 -31 -69 -39 -114s-10 -89 -10 -122c0 -57 6 -114 27 -166zM250 483c0 227 146 344 362 344
c52 0 104 -2 157 -7s105 -7 157 -7s104 2 157 7c52 5 104 7 156 7c107 0 197 -29 261 -86s102 -142 102 -254c0 -131 -43 -218 -110 -277s-160 -87 -260 -101s-207 -15 -306 -15c-145 0 -312 0 -446 49s-230 147 -230 340zM494 524c0 -88 40 -159 92 -159s94 71 94 159
s-42 160 -94 160s-92 -72 -92 -160zM1167 524c0 88 43 160 95 160c51 0 92 -72 92 -160s-40 -159 -92 -159s-95 71 -95 159zM864 369c0 16 27 30 60 30c32 0 59 -14 59 -30s-26 -31 -59 -31s-60 15 -60 31zM795 258c21 -63 72 -104 129 -104c60 0 110 41 131 104
c4 25 -28 39 -39 12c-13 -45 -51 -75 -92 -75c-44 -1 -75 24 -93 75c-11 25 -44 9 -36 -12z" />
    <glyph glyph-name="uniF09C" unicode="&#xf09c;" horiz-adv-x="1880" 
d="M0 743v-626c0 -63 54 -117 117 -117h1020c63 0 116 54 116 117v626c0 67 -53 119 -116 119h-119v156c0 87 35 166 92 222s133 91 221 91s166 -35 222 -91s92 -134 92 -222v-152c0 -43 33 -78 77 -78h80c44 0 78 34 78 78v152c0 149 -61 288 -160 388
c-100 100 -238 161 -389 161s-288 -61 -388 -161s-161 -237 -161 -388v-156h-665c-63 0 -117 -54 -117 -119zM494 164l65 287c-39 21 -65 65 -65 112c0 73 60 135 133 135s133 -62 133 -135c0 -47 -27 -90 -66 -114l66 -285h-266z" />
    <glyph glyph-name="uniF09D" unicode="&#xf09d;" 
d="M0 1382v-1228c0 -85 70 -154 154 -154h1536c84 0 153 70 153 154v1228c0 85 -69 154 -153 154h-1536c-85 0 -154 -70 -154 -154zM154 1114v268h1536v-268h-1536zM154 154v575h1536v-575h-1536zM260 250h307v115h-307v-115zM676 250h446v115h-446v-115z" />
    <glyph glyph-name="uniF09E" unicode="&#xf09e;" horiz-adv-x="1566" 
d="M0 1489v-158c0 -41 33 -75 74 -78c316 -19 602 -153 814 -365s346 -497 365 -814c3 -41 37 -74 78 -74h158c21 0 40 8 55 25c18 17 26 36 23 57c-23 401 -192 763 -457 1028s-627 436 -1028 457h-4c-20 0 -38 -8 -53 -23c-17 -15 -25 -33 -25 -55zM0 977v-158
c0 -37 31 -73 72 -78c177 -16 336 -95 455 -214s198 -278 214 -455c5 -41 39 -72 78 -72h158c23 0 42 8 57 25c17 16 24 36 21 59c-20 256 -132 488 -307 664c-176 175 -407 288 -664 307c-1 0 -2 0 -3 1s-2 1 -3 1c-20 0 -38 -8 -53 -23c-17 -15 -25 -34 -25 -57zM0 236
c0 -67 27 -125 69 -167s102 -69 167 -69s122 27 166 69c43 42 69 102 69 167s-26 122 -69 166c-44 43 -101 69 -166 69s-125 -26 -167 -69c-42 -44 -69 -101 -69 -166z" />
    <glyph glyph-name="uniF0A0" unicode="&#xf0a0;" 
d="M0 575v-382c0 -107 86 -193 193 -193h1458c52 0 102 23 136 57s56 81 56 136v382c0 15 -2 31 -6 46l-12 45l-238 727c-27 84 -108 143 -196 143h-938c-88 0 -170 -59 -197 -143l-238 -727l-12 -45s-6 -31 -6 -46zM213 768l188 578c7 21 31 36 52 36h938
c21 0 46 -15 51 -36l188 -578h-1417zM154 193v382c0 23 18 39 39 39h1458c21 0 39 -18 39 -39v-382c0 -23 -18 -39 -39 -39h-1458c-23 0 -39 18 -39 39zM1057 385c0 -55 41 -96 96 -96c52 0 94 41 94 96c0 52 -42 94 -94 94c-55 0 -96 -42 -96 -94zM1364 385
c0 -55 41 -96 96 -96c52 0 94 41 94 96c0 52 -42 94 -94 94c-55 0 -96 -42 -96 -94z" />
    <glyph glyph-name="uniF0A1" unicode="&#xf0a1;" 
d="M0 983v-229c0 -85 70 -154 154 -154h200c-16 -53 -24 -104 -24 -151c0 -96 21 -184 50 -269c15 -43 28 -84 40 -125c41 -40 120 -58 196 -54c75 4 148 34 175 91c-47 39 -91 77 -115 120c-25 43 -31 87 2 142c-39 39 -48 90 -35 136s50 86 107 102
c147 -16 307 -70 455 -141c147 -72 279 -159 370 -250c84 0 154 69 154 153v369c65 16 114 74 114 145s-49 130 -114 146v368c0 85 -70 154 -154 154c-101 -101 -255 -200 -422 -275c-167 -76 -347 -124 -500 -124h-499c-85 0 -154 -70 -154 -154zM807 741v254
c136 20 278 67 412 126s255 133 356 212v-930c-99 77 -222 151 -356 211s-276 106 -412 127z" />
    <glyph glyph-name="uniF0A2" unicode="&#xf0a2;" horiz-adv-x="1759" 
d="M1114 158h469c91 0 171 66 176 159c-133 101 -221 231 -277 376c-56 144 -83 305 -91 466c0 112 -79 214 -181 287s-230 121 -329 121c-107 0 -229 -47 -330 -122s-174 -178 -182 -290c-12 -164 -33 -322 -88 -464s-142 -270 -281 -374c5 -92 85 -159 176 -159h469
c25 -109 121 -189 236 -189s209 80 233 189zM1522 317h-1284c100 115 171 248 216 390c44 142 66 292 74 440c3 68 60 135 132 182c71 47 158 78 221 78c68 0 153 -29 222 -78s125 -117 130 -190c11 -151 32 -297 76 -436c43 -140 109 -271 213 -386zM713 209
c0 13 7 20 20 20s19 -7 19 -20c0 -71 58 -127 129 -127c12 -1 18 -8 18 -21s-6 -20 -18 -20c-93 0 -168 75 -168 168z" />
    <glyph glyph-name="uniF0A3" unicode="&#xf0a3;" horiz-adv-x="1597" 
d="M166 768l-143 -139c-15 -15 -23 -34 -23 -56c0 -32 24 -63 57 -71l195 -49l-15 -48c-7 -20 -13 -40 -19 -61c-12 -41 -23 -82 -23 -106c0 -39 32 -74 73 -74c25 0 66 11 107 24l61 18l47 15l49 -194c9 -33 39 -58 72 -58c23 0 41 8 53 23l142 143l139 -143
c15 -15 33 -23 55 -23c33 0 64 25 72 58l49 194l49 -15c19 -6 39 -12 60 -18c40 -13 82 -24 106 -24c41 0 74 35 74 74c0 24 -11 65 -23 106c-7 21 -13 41 -19 61s-11 36 -15 48l194 49c17 4 30 13 41 26c21 27 25 70 -6 101l-145 139l145 139c15 15 22 34 22 56
c0 32 -24 63 -57 71l-194 49l15 49c6 19 12 39 19 60c12 41 23 82 23 106c0 41 -35 74 -74 74c-24 0 -66 -11 -106 -23c-21 -7 -41 -13 -61 -19s-36 -11 -48 -15l-49 194c-8 36 -38 58 -74 58c-20 0 -38 -8 -53 -23l-139 -143l-142 143c-12 15 -30 23 -53 23
c-32 0 -64 -25 -72 -58l-49 -194l-47 15c-20 6 -40 12 -61 19c-41 12 -83 23 -107 23c-40 0 -73 -33 -73 -74c0 -24 11 -65 23 -106s26 -85 34 -109l-195 -49c-32 -8 -57 -38 -57 -71c0 -22 8 -41 23 -56z" />
    <glyph glyph-name="uniF0A4" unicode="&#xf0a4;" horiz-adv-x="1916" 
d="M0 836v-643c0 -67 54 -119 119 -119h375c81 0 164 -26 252 -52c87 -26 180 -53 284 -53c93 0 179 23 242 70s104 120 104 221c52 60 77 142 64 221c19 32 32 68 39 107h200c67 0 128 25 170 67s68 101 68 166c0 68 -26 126 -68 169s-105 67 -170 69h-510
c31 63 54 132 54 203c0 76 -27 154 -74 211s-116 94 -197 94c-52 0 -88 -11 -109 -34c-42 -45 -55 -115 -61 -190c-6 -76 -39 -130 -95 -174c-28 -23 -54 -46 -77 -69c-11 -13 -22 -25 -33 -37c-12 -13 -23 -26 -34 -39c-25 -31 -40 -51 -76 -70h-348
c-65 0 -119 -53 -119 -118zM489 193v643h5c25 11 47 23 65 36c36 26 63 56 90 90s75 85 134 134s99 120 113 206c7 43 14 84 22 123c1 6 2 10 3 13c1 5 11 10 20 10h11c49 0 86 -26 111 -61c24 -36 39 -81 39 -125c0 -67 -25 -119 -49 -169c-25 -50 -52 -98 -52 -153
c113 0 226 0 338 -1s225 -1 340 -1c69 0 117 -46 117 -117c0 -68 -49 -112 -117 -112c-60 0 -119 0 -178 -1s-118 -1 -178 -1c19 -19 39 -47 39 -78c0 -49 -20 -90 -59 -123c13 -19 20 -42 20 -68c0 -49 -25 -106 -72 -127c3 -16 4 -32 4 -51c0 -65 -28 -108 -69 -134
s-99 -36 -156 -36c-96 0 -183 27 -271 52c-89 24 -177 51 -270 51zM233 276c0 44 33 80 80 80c44 0 80 -36 80 -80c0 -45 -36 -79 -80 -79c-47 0 -80 32 -80 79z" />
    <glyph glyph-name="uniF0A5" unicode="&#xf0a5;" horiz-adv-x="1916" 
d="M614 1057h-376c-67 0 -127 -24 -169 -67s-69 -101 -69 -169c0 -65 27 -124 69 -166s104 -67 169 -67h200c7 -40 20 -76 39 -107c-13 -79 12 -161 64 -221c0 -101 41 -174 104 -221s149 -70 242 -70c104 0 197 27 285 53c87 26 170 52 251 52h375c65 0 119 54 119 119v643
c0 65 -54 118 -119 118h-348c-36 20 -52 39 -76 70l-33 39l-34 37c-23 23 -49 46 -77 69c-56 44 -87 98 -94 174c-4 37 -10 73 -18 106c-16 67 -49 118 -153 118c-83 0 -150 -37 -197 -94s-74 -135 -74 -211c0 -72 23 -140 54 -203zM1427 836v-643c-92 0 -180 -27 -268 -51
c-89 -25 -179 -52 -272 -52c-57 0 -115 10 -156 36s-69 69 -69 134c0 19 1 35 4 51c-47 23 -72 78 -72 127c0 26 7 49 20 68c-39 33 -59 74 -59 123c0 29 20 59 39 78c-60 0 -119 0 -178 1s-118 1 -178 1c-69 0 -117 44 -117 112c0 71 49 117 117 117c115 0 228 0 340 1
c111 1 224 1 337 1c0 55 -26 103 -50 153c-25 50 -50 104 -50 169c0 43 15 89 39 125c24 35 62 61 111 61h11c9 0 19 -4 20 -10c1 -3 2 -8 3 -13c9 -39 16 -80 23 -123c13 -86 53 -157 112 -206c29 -25 58 -51 85 -78c19 -21 35 -39 49 -56c13 -17 27 -33 42 -48
c28 -30 58 -57 113 -78h4zM1524 276c0 44 36 80 80 80c45 0 79 -36 79 -80c0 -45 -32 -79 -79 -79c-44 0 -80 32 -80 79z" />
    <glyph glyph-name="uniF0A6" unicode="&#xf0a6;" horiz-adv-x="1597" 
d="M508 1329v-510c-63 31 -132 53 -203 53c-76 0 -154 -26 -211 -73s-94 -116 -94 -197c0 -52 11 -88 34 -109c45 -42 115 -55 191 -62c75 -7 129 -38 174 -94c22 -28 45 -54 68 -77c12 -11 24 -22 37 -33c13 -12 26 -23 39 -34c29 -25 50 -40 69 -76v-348
c0 -67 54 -119 119 -119h643c65 0 119 54 119 119v374c0 83 27 165 53 253c26 87 51 180 51 284c0 93 -22 178 -69 242c-47 63 -120 104 -221 104c-60 52 -143 77 -222 64c-31 19 -67 31 -106 38v201c0 65 -24 126 -66 169s-103 69 -168 69c-68 0 -126 -26 -168 -69
s-67 -104 -69 -169zM731 139v4c-11 26 -22 48 -35 66c-26 36 -56 63 -90 90s-86 75 -135 134s-119 99 -206 112c-43 7 -85 14 -124 22c-5 1 -9 3 -12 4c-5 2 -10 11 -9 20c1 5 1 8 1 11c0 49 24 86 60 111c35 24 80 39 124 39c65 0 118 -25 169 -49c51 -25 98 -52 153 -52
c0 113 0 226 1 338s1 225 1 340c0 68 45 117 116 117c69 0 113 -49 113 -117c0 -60 0 -119 1 -178s1 -118 1 -178c19 19 47 39 78 39c49 -1 90 -21 123 -60c19 14 41 21 67 21c49 0 106 -25 127 -72c17 3 33 4 52 4c65 0 108 -29 134 -69c26 -41 36 -99 36 -156
c0 -96 -27 -183 -51 -271c-25 -89 -52 -177 -52 -270h-643zM1210 -37c0 44 36 80 80 80c47 0 80 -36 80 -80c0 -47 -33 -80 -80 -80c-44 0 -80 33 -80 80z" />
    </font>
</defs>
</svg>
