<?xml version="1.0" standalone="no"?>
<!DOCTYPE svg PUBLIC "-//W3C//DTD SVG 1.1//EN" "http://www.w3.org/Graphics/SVG/1.1/DTD/svg11.dtd" >
<svg xmlns="http://www.w3.org/2000/svg">
<metadata></metadata>
<defs>
<font id="FontAwesomeRegular" horiz-adv-x="1843" >
<font-face units-per-em="2048" ascent="1536" descent="-512" />
<missing-glyph horiz-adv-x="512" />
<glyph horiz-adv-x="0" />
<glyph horiz-adv-x="0" />
<glyph unicode="&#xd;" horiz-adv-x="512" />
<glyph unicode=" "  horiz-adv-x="512" />
<glyph unicode="&#x09;" horiz-adv-x="512" />
<glyph unicode="&#xa0;" horiz-adv-x="512" />
<glyph unicode="o" horiz-adv-x="1591" d="M1556 707q16 -4 26.5 -16.5t8.5 -28.5q-20 -147 -89.5 -274.5t-176 -220.5t-242 -145.5t-284.5 -52.5q-166 0 -311.5 62.5t-254 171t-171 254t-62.5 311.5t62.5 311.5t171 254t254 171t311.5 62.5q141 0 271 -48.5t239 -140.5l161 162q35 35 58.5 24.5t23.5 -57.5v-463 q0 -33 -22 -55q-10 -10 -23.5 -16t-29.5 -6h-463q-47 0 -58.5 23.5t23.5 58.5l160 159q-72 57 -159 88t-181 31q-117 0 -218.5 -44t-177 -120t-119.5 -177t-44 -218t44 -218t119.5 -177t177 -120t218.5 -44q104 0 198.5 37t169 101.5t123.5 153.5t64 191q0 16 14 27 q14 10 31 8l157 -20v0z" />
<glyph unicode="&#xa8;" horiz-adv-x="2048" />
<glyph unicode="&#xa9;" horiz-adv-x="2048" />
<glyph unicode="&#xae;" horiz-adv-x="2048" />
<glyph unicode="&#xb4;" horiz-adv-x="2048" />
<glyph unicode="&#xc6;" horiz-adv-x="2048" />
<glyph unicode="&#xcd;" horiz-adv-x="2048" />
<glyph unicode="&#x2000;" horiz-adv-x="784" />
<glyph unicode="&#x2001;" horiz-adv-x="1569" />
<glyph unicode="&#x2002;" horiz-adv-x="784" />
<glyph unicode="&#x2003;" horiz-adv-x="1569" />
<glyph unicode="&#x2004;" horiz-adv-x="523" />
<glyph unicode="&#x2005;" horiz-adv-x="392" />
<glyph unicode="&#x2006;" horiz-adv-x="261" />
<glyph unicode="&#x2007;" horiz-adv-x="261" />
<glyph unicode="&#x2008;" horiz-adv-x="196" />
<glyph unicode="&#x2009;" horiz-adv-x="313" />
<glyph unicode="&#x200a;" horiz-adv-x="87" />
<glyph unicode="&#x202f;" horiz-adv-x="313" />
<glyph unicode="&#x203a;" horiz-adv-x="2048" />
<glyph unicode="&#x205f;" horiz-adv-x="392" />
<glyph unicode="&#x2122;" horiz-adv-x="2048" />
<glyph unicode="&#x221e;" horiz-adv-x="2048" />
<glyph unicode="&#xe000;" horiz-adv-x="1024" d="M0 0v0v0v0v0z" />
<glyph unicode="&#xf000;" horiz-adv-x="1536" d="M903 795v-641h248q33 0 55.5 -22.5t22.5 -53.5q0 -33 -22.5 -55.5t-55.5 -22.5h-768q-31 0 -53.5 22.5t-22.5 55.5q0 31 22.5 53.5t53.5 22.5h250v641l-610 610q-37 37 -17 84t70 47h1382q51 0 72 -47q20 -47 -17 -84z" />
<glyph unicode="&#xf001;" horiz-adv-x="1488" d="M1407 1567q35 0 58.5 -23.5t23.5 -58.5v-1028q0 -59 -27.5 -104.5t-73 -76t-99.5 -47t-105 -16.5t-105.5 16.5t-98.5 47t-71.5 75.5t-27.5 105q0 57 27.5 103t71.5 77t98.5 47t105.5 16q27 0 52.5 -4t49.5 -10v537l-678 -195v-815q0 -59 -27.5 -104.5t-71.5 -76 t-98.5 -47t-105.5 -16.5q-53 0 -106.5 16.5t-98.5 47t-72.5 76t-27.5 104.5q0 57 27.5 103t72.5 77t98.5 47.5t106.5 16.5q25 0 50.5 -4t50.5 -11v779q0 27 16 48t43 29q23 6 99.5 29t178 52.5t215 62.5t211 60.5t164 46t74.5 18.5z" />
<glyph unicode="&#xf002;" horiz-adv-x="1597" d="M666 1153q20 0 34.5 -14.5t14.5 -36.5q0 -20 -14.5 -34.5t-34.5 -14.5q-63 0 -107.5 -44t-44.5 -108q0 -20 -14.5 -34.5t-34.5 -14.5q-23 0 -37 14.5t-14 34.5q0 51 19.5 97t54 81t80 54.5t98.5 19.5zM266 901q0 -84 32 -156.5t86 -126t127 -85t155 -31.5t154.5 31.5 t126.5 85t86 126t32 156.5q0 82 -32 154.5t-86 127t-126.5 86t-154.5 31.5t-155 -31.5t-127 -86t-86 -127t-32 -154.5zM1579 176q18 -18 18 -47q0 -16 -18 -43t-45 -53.5t-53.5 -45t-42.5 -18.5q-29 0 -47 19l-359 358q-82 -53 -175 -81.5t-191 -28.5q-137 0 -258 52 t-212.5 143t-143.5 212t-52 258t52 258t143.5 212t212 143.5t258.5 52.5q137 0 257.5 -52.5t212 -143.5t143.5 -212t52 -258q0 -98 -28.5 -191.5t-81.5 -174.5z" />
<glyph unicode="&#xf003;" d="M1690 154v852q-31 -31 -58 -50q-106 -80 -212.5 -159.5t-211.5 -163.5q-61 -49 -131.5 -94t-156.5 -45q-82 0 -153 45t-132 94q-104 84 -211 164t-213 159q-27 18 -57 50v-852h1536zM154 1382v-65q0 -31 14 -65.5t35.5 -66.5t47 -59.5t50.5 -46.5q100 -76 199.5 -150.5 t199.5 -152.5q20 -16 48 -37.5t58 -42t59.5 -35t54.5 -14.5h2h2q25 0 54.5 14.5t59 35t57 42t48.5 37.5q100 78 199.5 153t199.5 150q25 18 50.5 46t47 60t36 66.5t14.5 65.5v65h-1536zM1729 1536q47 0 80.5 -34t33.5 -81v-1306q0 -47 -33.5 -81t-80.5 -34h-1614 q-47 0 -81 34t-34 81v1306q0 47 34 81t81 34h1614v0z" />
<glyph unicode="&#xf004;" horiz-adv-x="1802" d="M1313 1567q113 0 204 -35t154.5 -98.5t97 -155.5t33.5 -205q0 -66 -18.5 -130t-51 -124.5t-74.5 -115t-87 -99.5l-615 -612q-23 -23 -55 -23q-31 0 -57 23l-615 614q-45 45 -87 99.5t-73.5 114t-50 124t-18.5 129.5q0 113 34 205t97.5 155.5t153.5 98.5t202 35 q59 0 117 -18.5t110 -48.5t99 -68.5t88 -77.5q39 39 87 77.5t100.5 68.5t109 48.5t115.5 18.5z" />
<glyph unicode="&#xf005;" horiz-adv-x="1675" d="M27 899q-35 33 -26 60.5t54 33.5l506 74l227 459q20 41 49 41t50 -41l227 -459l506 -74q45 -6 54 -33.5t-23 -60.5l-367 -356l86 -504q8 -45 -15.5 -62.5t-64.5 5.5l-452 237l-453 -237q-41 -23 -64.5 -5.5t-15.5 62.5l86 504z" />
<glyph unicode="&#xf006;" horiz-adv-x="1675" d="M838 1567q18 0 30.5 -13.5t18.5 -27.5l227 -459l506 -74q18 -4 36.5 -13t18.5 -32q0 -14 -7 -26.5t-17 -22.5l-367 -356l86 -504q0 -4 1 -9t1 -12q0 -20 -9 -34.5t-32 -14.5t-41 13l-452 237l-453 -237q-18 -12 -39 -13q-23 0 -33 14.5t-10 34.5q0 6 1 11.5t1 9.5l86 504 l-364 356q-10 10 -18.5 22.5t-8.5 26.5q0 23 18.5 32t36.5 13l506 74l227 459q6 14 20 27.5t30 13.5zM668 922l-379 -56l274 -268l-65 -377l340 178l340 -178l-66 377l274 268l-378 56l-170 344z" />
<glyph unicode="&#xf007;" horiz-adv-x="1566" d="M1014 780q27 -4 77 -10t104 -13t101 -14.5t68 -13.5q35 -10 70.5 -42t65.5 -74t48.5 -87t18.5 -82v-387q-10 -4 -22.5 -14t-27 -19.5t-27.5 -16.5t-22 -7h-1370q-35 0 -53 21.5t-45 35.5v387q0 37 18.5 82t48 86t65.5 74t71 43q18 6 66 13.5t102.5 14.5t104.5 13t77 10 q-92 59 -144.5 153.5t-52.5 205.5q0 88 34 165.5t91.5 136t135 92.5t165.5 34t166 -34t136.5 -92.5t92 -136t33.5 -165.5q0 -109 -52 -204.5t-144 -154.5z" />
<glyph unicode="&#xf008;" d="M1729 1382q0 16 -11.5 27.5t-27.5 11.5h-154q-16 0 -27.5 -11t-11.5 -28v-153q0 -16 11.5 -27.5t27.5 -11.5h154q16 0 27.5 11t11.5 28v153zM1729 1024q0 16 -11.5 27.5t-27.5 11.5h-154q-16 0 -27.5 -11.5t-11.5 -27.5v-154q0 -16 11.5 -27.5t27.5 -11.5h154 q16 0 27.5 11.5t11.5 27.5v154zM1729 666q0 16 -11.5 27.5t-27.5 11.5h-154q-16 0 -27.5 -11.5t-11.5 -27.5v-154q0 -16 11.5 -27.5t27.5 -11.5h154q16 0 27.5 11.5t11.5 27.5v154zM1729 307q0 16 -11.5 27.5t-27.5 11.5h-154q-16 0 -27.5 -11t-11.5 -28v-153 q0 -16 11.5 -27.5t27.5 -11.5h154q16 0 27.5 11t11.5 28v153zM1382 1382q0 16 -11 27.5t-28 11.5h-843q-16 0 -27.5 -11t-11.5 -28v-512q0 -16 11 -27.5t28 -11.5h843q16 0 27.5 11.5t11.5 27.5v512zM1382 666q0 16 -11 27.5t-28 11.5h-843q-16 0 -27.5 -11.5t-11.5 -27.5 v-512q0 -16 11 -27.5t28 -11.5h843q16 0 27.5 11t11.5 28v512zM346 1382q0 16 -11 27.5t-28 11.5h-153q-16 0 -27.5 -11t-11.5 -28v-153q0 -16 11 -27.5t28 -11.5h153q16 0 27.5 11t11.5 28v153zM346 1024q0 16 -11 27.5t-28 11.5h-153q-16 0 -27.5 -11.5t-11.5 -27.5v-154 q0 -16 11 -27.5t28 -11.5h153q16 0 27.5 11.5t11.5 27.5v154zM346 666q0 16 -11 27.5t-28 11.5h-153q-16 0 -27.5 -11.5t-11.5 -27.5v-154q0 -16 11 -27.5t28 -11.5h153q16 0 27.5 11.5t11.5 27.5v154zM346 307q0 16 -11 27.5t-28 11.5h-153q-16 0 -27.5 -11t-11.5 -28v-153 q0 -16 11 -27.5t28 -11.5h153q16 0 27.5 11t11.5 28v153zM1729 1536q47 0 80.5 -34t33.5 -81v-1306q0 -47 -33.5 -81t-80.5 -34h-1614q-47 0 -81 34t-34 81v1306q0 47 34 81t81 34h1614v0z" />
<glyph unicode="&#xf009;" d="M1767 692q31 0 53.5 -22.5t22.5 -55.5v-536q0 -33 -22.5 -55.5t-53.5 -22.5h-692q-33 0 -54.5 22.5t-21.5 55.5v536q0 33 21.5 55.5t54.5 22.5h692v0zM1767 1536q31 0 53.5 -22.5t22.5 -53.5v-538q0 -33 -22.5 -54.5t-53.5 -21.5h-692q-33 0 -54.5 21.5t-21.5 54.5v538 q0 31 21.5 53.5t54.5 22.5h692v0zM768 692q33 0 55.5 -22.5t22.5 -55.5v-536q0 -33 -22.5 -55.5t-55.5 -22.5h-690q-33 0 -55.5 22.5t-22.5 55.5v536q0 33 22.5 55.5t55.5 22.5h690v0zM768 1536q33 0 55.5 -22.5t22.5 -53.5v-538q0 -33 -22.5 -54.5t-55.5 -21.5h-690 q-33 0 -55.5 21.5t-22.5 54.5v538q0 31 22.5 53.5t55.5 22.5h690v0z" />
<glyph unicode="&#xf00a;" d="M1331 348q0 33 22.5 54.5t55.5 21.5h358q31 0 53.5 -21.5t22.5 -54.5v-270q0 -33 -22.5 -55.5t-53.5 -22.5h-358q-33 0 -55.5 22.5t-22.5 55.5v270zM1102 424q31 0 53.5 -21.5t22.5 -54.5v-270q0 -33 -22.5 -55.5t-53.5 -22.5h-359q-33 0 -55 22.5t-22 55.5v270 q0 33 22.5 54.5t54.5 21.5h359zM1767 1536q31 0 53.5 -22.5t22.5 -53.5v-272q0 -33 -22.5 -55.5t-53.5 -22.5h-358q-33 0 -55.5 22.5t-22.5 55.5v272q0 31 22.5 53.5t55.5 22.5h358zM1331 881q0 33 22.5 54t55.5 21h358q31 0 53.5 -21.5t22.5 -53.5v-226q0 -33 -22.5 -55 t-53.5 -22h-358q-33 0 -55.5 22.5t-22.5 54.5v226zM1178 655q0 -33 -22.5 -55t-53.5 -22h-359q-33 0 -55 22.5t-22 54.5v226q0 33 22.5 54t54.5 21h359q31 0 53.5 -21.5t22.5 -53.5v-226zM743 1110q-33 0 -55 22.5t-22 55.5v272q0 31 22.5 53.5t54.5 22.5h359 q31 0 53.5 -22.5t22.5 -53.5v-272q0 -33 -22.5 -55.5t-53.5 -22.5h-359zM436 424q31 0 53.5 -21.5t22.5 -54.5v-270q0 -33 -22.5 -55.5t-53.5 -22.5h-358q-33 0 -55.5 22.5t-22.5 55.5v270q0 33 22.5 54.5t55.5 21.5h358zM512 655q0 -33 -22.5 -55t-53.5 -22h-358 q-33 0 -55.5 22.5t-22.5 54.5v226q0 33 22.5 54t55.5 21h358q31 0 53.5 -21.5t22.5 -53.5v-226zM512 1188q0 -33 -22.5 -55.5t-53.5 -22.5h-358q-33 0 -55.5 22.5t-22.5 55.5v272q0 31 22.5 53.5t55.5 22.5h358q31 0 53.5 -22.5t22.5 -53.5v-272z" />
<glyph unicode="&#xf00b;" d="M1767 1536q31 0 53.5 -22.5t22.5 -53.5v-272q0 -33 -22.5 -55.5t-53.5 -22.5h-1085q-33 0 -55.5 22.5t-22.5 55.5v272q0 31 22.5 53.5t55.5 22.5h1085zM604 881q0 33 22.5 54t55.5 21h1085q31 0 53.5 -21.5t22.5 -53.5v-226q0 -33 -22.5 -55t-53.5 -22h-1085 q-33 0 -55.5 22.5t-22.5 54.5v226zM604 348q0 33 22.5 54.5t55.5 21.5h1085q31 0 53.5 -21.5t22.5 -54.5v-270q0 -33 -22.5 -55.5t-53.5 -22.5h-1085q-33 0 -55.5 22.5t-22.5 55.5v270zM375 424q31 0 53.5 -21.5t22.5 -54.5v-270q0 -33 -22.5 -55.5t-53.5 -22.5h-297 q-33 0 -55.5 22.5t-22.5 55.5v270q0 33 22.5 54.5t55.5 21.5h297zM451 1188q0 -33 -22.5 -55.5t-53.5 -22.5h-297q-33 0 -55.5 22.5t-22.5 55.5v272q0 31 22.5 53.5t55.5 22.5h297q31 0 53.5 -22.5t22.5 -53.5v-272zM451 655q0 -33 -22.5 -55t-53.5 -22h-297 q-33 0 -55.5 22.5t-22.5 54.5v226q0 33 22.5 54t55.5 21h297q31 0 53.5 -21.5t22.5 -53.5v-226z" />
<glyph unicode="&#xf00c;" d="M686 92q-35 0 -75 16.5t-62 38.5l-526 529q-23 23 -23 56.5t23 55.5l174 175q23 23 56.5 22.5t55.5 -22.5l365 -365q23 -23 56.5 -23t55.5 23l746 745q23 23 56.5 23t56.5 -23l174 -174q23 -23 22.5 -56.5t-22.5 -55.5l-910 -910q-23 -23 -62.5 -39t-72.5 -16h-88z" />
<glyph unicode="&#xf00d;" horiz-adv-x="1536" d="M1507 260q29 -29 29 -66.5t-29 -66.5l-100 -102q-29 -29 -68 -29t-67 29l-504 505l-506 -505q-29 -29 -66.5 -29t-66.5 29l-100 100q-29 29 -29 67.5t29 67.5l508 510l-508 500q-29 29 -29 67.5t29 67.5l100 100q29 29 68 29t67 -29l504 -504l504 504q29 29 67.5 29 t67.5 -29l100 -100q29 -29 29 -68t-29 -67l-508 -510l508 -500v0z" />
<glyph unicode="&#xf00e;" horiz-adv-x="1597" d="M899 967q33 0 33 -33v-66q0 -14 -9.5 -24t-23.5 -10h-166v-166q0 -14 -10 -23.5t-25 -9.5h-65q-33 0 -33 33v166h-168q-14 0 -23.5 10t-9.5 24v66q0 33 33 33h168v168q0 33 33 32h65q14 0 24.5 -9t10.5 -23v-168h166v0zM266 901q0 -84 32 -156.5t86 -126t127 -85 t155 -31.5t155.5 31.5t126.5 85t85 126t32 156.5q0 82 -32 154.5t-85 127t-126.5 86t-155.5 31.5t-155 -31.5t-127 -86t-86 -127t-32 -154.5zM1579 176q18 -18 18 -46t-18 -48l-94 -94q-20 -18 -48 -18.5t-46 18.5l-359 358q-78 -53 -171 -81.5t-195 -28.5q-137 0 -258 52 t-212.5 142t-143.5 211t-52 260q0 137 52 258t143.5 212t212 143.5t258.5 52.5q137 0 259 -52.5t212 -143.5t142 -212t52 -258q0 -102 -28.5 -195.5t-81.5 -170.5l358 -359v0z" />
<glyph unicode="&#xf010;" horiz-adv-x="1597" d="M899 967q33 0 33 -33v-66q0 -14 -9.5 -24t-23.5 -10h-467q-14 0 -23.5 10t-9.5 24v66q0 33 33 33h467v0zM266 901q0 -84 32 -156.5t86 -126t127 -85t155 -31.5t155.5 31.5t126.5 85t85 126t32 156.5q0 82 -32 154.5t-85 127t-126.5 86t-155.5 31.5t-155 -31.5t-127 -86 t-86 -127t-32 -154.5zM1579 176q18 -18 18 -46t-18 -48l-94 -94q-20 -18 -48 -18.5t-46 18.5l-359 358q-78 -53 -171 -81.5t-195 -28.5q-137 0 -258 52t-212.5 142t-143.5 211t-52 260q0 137 52 258t143.5 212t212 143.5t258.5 52.5q137 0 259 -52.5t212 -143.5t142 -212 t52 -258q0 -102 -28.5 -195.5t-81.5 -170.5l358 -359v0z" />
<glyph unicode="&#xf011;" horiz-adv-x="1488" d="M1163 1329q154 -104 240 -267t86 -349q0 -154 -58.5 -289t-160 -236.5t-237.5 -160t-290 -58.5t-289 58.5t-236 160t-159.5 236.5t-58.5 289q0 186 86 349t240 267q12 10 28 6q18 -4 25 -16l90 -131q10 -12 6 -27.5t-16 -25.5q-106 -72 -164.5 -182.5t-58.5 -239.5 q0 -104 39.5 -197.5t108.5 -162t162 -108.5t197 -40t197.5 40t163.5 108.5t109.5 161.5t39.5 198q0 129 -59 239.5t-164 182.5q-14 10 -16 24q-4 16 6 29l88 131q10 12 25.5 15t29.5 -5zM666 754q-16 0 -27.5 11t-11.5 28v704q0 16 11 27.5t28 11.5h157q16 0 27.5 -11.5 t11.5 -27.5v-704q0 -16 -11 -27.5t-28 -11.5h-157v0z" />
<glyph unicode="&#xf012;" d="M268 39q0 -16 -10 -27.5t-27 -11.5h-192q-39 0 -39 39v260q0 16 11.5 27.5t27.5 11.5h192q16 0 26.5 -11.5t10.5 -27.5v-260zM662 39q0 -16 -10.5 -27.5t-26.5 -11.5h-193q-16 0 -27.5 11.5t-11.5 27.5v434q0 16 11.5 27.5t27.5 11.5h193q16 0 26.5 -11.5t10.5 -27.5 v-434zM1057 39q0 -16 -11.5 -27.5t-27.5 -11.5h-193q-16 0 -27.5 11.5t-11.5 27.5v676q0 16 11.5 27.5t27.5 11.5h193q16 0 27.5 -11.5t11.5 -27.5v-676zM1450 39q0 -16 -11.5 -27.5t-27.5 -11.5h-192q-16 0 -26.5 11.5t-10.5 27.5v995q0 16 10 27.5t27 11.5h192 q16 0 27.5 -11t11.5 -28v-995zM1843 39q0 -39 -39 -39h-190q-39 0 -39 39v1458q0 39 39 39h190q39 0 39 -39v-1458z" />
<glyph unicode="&#xf013;" horiz-adv-x="1593" d="M797 526q49 0 93 19.5t75.5 52.5t51 77t19.5 93t-19.5 92t-51 76t-75.5 51.5t-93 18.5t-93.5 -18.5t-77 -51.5t-51 -76t-18.5 -92t18.5 -93t51 -77t77 -52.5t93.5 -19.5zM1372 934q49 -10 103.5 -13t101.5 -20q16 -4 16 -18v-236q0 -12 -29.5 -21.5t-68.5 -15.5t-76 -9 t-49 -5q-14 -57 -47 -117q55 -82 121 -157l6 -15q0 -8 -27.5 -38.5t-62.5 -65.5t-66.5 -62.5t-40.5 -27.5q-2 0 -26.5 18.5t-54 41t-56 43t-33.5 24.5q-29 -16 -58.5 -27.5t-59.5 -19.5q-2 -12 -5.5 -49.5t-9.5 -76t-14 -69.5t-21 -31h-237q-14 0 -19 17q-14 49 -19 103 t-11 103q-61 18 -117 50q-41 -31 -81 -60.5t-79 -62.5l-12 -4q-6 0 -37 27.5t-64.5 62.5t-61 65.5t-27.5 38.5q0 2 16 26.5t37.5 53.5t42 55.5t26.5 34.5q-33 55 -51 123q-51 10 -104.5 13t-100.5 20q-16 4 -16 18v236q0 12 30.5 21.5t68.5 15.5t74 9t48 5q18 61 49 117 q-55 82 -120 157l-7 15q0 8 28 38.5t62.5 65.5t66.5 62.5t40 27.5q2 0 26.5 -18.5t54.5 -41t56.5 -43t32.5 -24.5q29 16 58.5 26.5t60.5 20.5q0 12 3 49t9 75t15.5 69t21.5 31h237q14 0 19 -15q12 -49 17 -103t14 -106q31 -8 59.5 -19t56.5 -28q8 6 34 26.5t55.5 43t53 40 t29.5 17.5t37 -27.5t65 -62.5t61.5 -65.5t27.5 -38.5q0 -4 -17.5 -28.5t-39 -53.5t-42 -55.5t-24.5 -32.5q33 -55 51 -123z" />
<glyph unicode="&#xf014;" horiz-adv-x="1304" d="M887 199q0 -16 11 -26.5t28 -10.5h39q16 0 27.5 10t11.5 27v614q0 16 -11.5 27.5t-27.5 11.5h-39q-16 0 -27.5 -11.5t-11.5 -27.5v-614zM711 813q0 16 -11.5 27.5t-27.5 11.5h-39q-16 0 -26.5 -11.5t-10.5 -27.5v-614q0 -16 10 -26.5t27 -10.5h39q16 0 27.5 10t11.5 27 v614zM418 813q0 16 -11.5 27.5t-27.5 11.5h-39q-16 0 -26.5 -11.5t-10.5 -27.5v-614q0 -16 10.5 -26.5t26.5 -10.5h39q16 0 27.5 10t11.5 27v614zM653 965q129 2 258 6t258 20v-837q0 -63 -44 -108.5t-107 -45.5h-731q-63 0 -108.5 45t-45.5 109v837q123 -16 244 -21t244 -5 h32v0zM799 1339q0 12 2 23.5t0 21.5v15q-35 10 -74 11t-74 1q-37 0 -75.5 -1t-73.5 -11v-15q0 -10 1 -22t3 -23q144 2 291 0zM1305 1210v-69q-37 -20 -123 -32.5t-185.5 -19t-193.5 -7.5t-150 -1q-55 0 -150 1t-194.5 7.5t-184.5 18.5t-122 33q-2 16 -2 34.5v34.5v36t2 36 q25 14 71 23.5t98 15.5t102.5 9t78.5 5q-8 82 11.5 128t59.5 68.5t98.5 29t131.5 6.5q55 0 109.5 -3t97.5 -20.5t68.5 -54.5t25.5 -105v-24t-2 -25q29 -2 79 -5t102.5 -9t99.5 -15.5t72 -23.5v-72z" />
<glyph unicode="&#xf015;" horiz-adv-x="1880" d="M1866 836q12 -10 14 -25.5t-8 -28.5l-45 -53q-10 -14 -29 -14h-65q-16 0 -25 8l-743 608q-25 20 -50 0l-743 -608q-8 -8 -25 -8h-65q-18 0 -29 14l-45 53q-10 12 -8 27.5t14 26.5l867 710q27 20 59 21q33 0 59 -21l240 -196v102q0 16 11.5 27.5t27.5 11.5h223 q16 0 26.5 -11.5t10.5 -27.5v-348l328 -268v0zM1614 698v-622q0 -33 -21.5 -54.5t-54.5 -21.5h-422v498h-352v-498h-422q-33 0 -54.5 21.5t-21.5 54.5v622l674 553z" />
<glyph unicode="&#xf016;" horiz-adv-x="1228" d="M268 442h693v-116h-693v116zM268 711h693v-115h-693v115zM1075 999q0 4 -4 13.5t-6 11.5l-350 348q-2 4 -9.5 6t-11.5 4v-383h381zM1075 846h-459q-31 0 -53 22.5t-22 55.5v458h-387v-1228h921v692zM692 1536q33 0 71 -16.5t60 -38.5l351 -351q23 -23 39 -60.5t16 -70.5 v-921q0 -33 -22.5 -55.5t-53.5 -22.5h-1075q-33 0 -55.5 22.5t-22.5 55.5v1382q0 31 22.5 53.5t55.5 22.5h614v0z" />
<glyph unicode="&#xf017;" horiz-adv-x="1597" d="M799 209q117 0 218 44t177 120t120 177t44 218t-44 218t-120 177t-177.5 120t-217.5 44q-117 0 -218.5 -44t-177 -120t-119.5 -177t-44 -218t44 -218t119.5 -177t177 -120t218.5 -44zM799 1567q166 0 311 -62.5t254 -171t171 -254t62 -311.5t-62 -311.5t-171 -254 t-254 -171t-311 -62.5t-311.5 62.5t-254 171t-171 254t-62.5 311.5t62.5 311.5t171 254t254 171t311.5 62.5zM1075 768q33 0 56.5 -23.5t23.5 -56.5v-80q0 -33 -23.5 -56.5t-56.5 -23.5h-360q-33 0 -56.5 23.5t-23.5 56.5v465q0 33 23.5 56.5t56.5 23.5h80q35 0 57 -23.5 t22 -56.5v-305h201v0z" />
<glyph unicode="&#xf018;" d="M1036 797l-20 413h-189l-20 -413h229zM1841 35q6 -14 -1 -24.5t-23 -10.5h-740l-26 512h-258l-27 -512h-739q-16 0 -23.5 10t-1.5 25l594 1466q6 14 21.5 24.5t31.5 10.5h195l-8 -170h172l-9 170h195q16 0 31.5 -10t21.5 -25z" />
<glyph unicode="&#xf019;" d="M362 905q-23 23 -16.5 39.5t39.5 16.5h307v499q0 31 21.5 53.5t54.5 22.5h307q33 0 55.5 -22.5t22.5 -53.5v-499h307q31 0 37 -16.5t-16 -39.5l-504 -506q-23 -23 -55.5 -22.5t-55.5 22.5zM1804 692q16 0 27.5 -11t11.5 -28v-614q0 -39 -39 -39h-1765q-39 0 -39 39v614 q0 16 11.5 27.5t27.5 11.5h229q16 0 27.5 -11t11.5 -28v-346h1229v346q0 16 11.5 27.5t27.5 11.5h229v0z" />
<glyph unicode="&#xf01a;" horiz-adv-x="1597" d="M799 209q117 0 218 44t177 120t120 177t44 218t-44 218t-120 177t-177.5 120t-217.5 44q-117 0 -218.5 -44t-177 -120t-119.5 -177t-44 -218t44 -218t119.5 -177t177 -120t218.5 -44zM799 1567q166 0 311 -62.5t254 -171t171 -254t62 -311.5t-62 -311.5t-171 -254 t-254 -171t-311 -62.5t-311.5 62.5t-254 171t-171 254t-62.5 311.5t62.5 311.5t171 254t254 171t311.5 62.5zM1147 768q27 0 37 -25t-10 -43l-347 -346q-14 -10 -28 -10t-29 10l-346 346q-20 18 -10 43t37 25h208v358q0 16 11.5 28.5t27.5 12.5h201q16 0 27.5 -12t11.5 -29 v-358h209v0z" />
<glyph unicode="&#xf01b;" horiz-adv-x="1597" d="M799 1327q-117 0 -218.5 -44t-177 -120t-119.5 -177t-44 -218t44 -218t119.5 -177t177 -120t218.5 -44t218 44t177 120t120 177t44 218t-44 218t-120 177t-177 120t-218 44zM799 -31q-166 0 -311.5 62.5t-254 171t-171 254t-62.5 311.5t62.5 311.5t171 254t254 171 t311.5 62.5t311 -62.5t254 -171t171 -254t62 -311.5t-62 -311.5t-171 -254t-254 -171t-311 -62.5zM451 768q-27 0 -37 25t10 43l346 346q14 10 29 10q14 0 28 -10l347 -346q20 -18 10 -43t-37 -25h-209v-360q0 -16 -11.5 -27.5t-27.5 -11.5h-201q-16 0 -27.5 11t-11.5 28 v360h-208v0z" />
<glyph unicode="&#xf01c;" d="M242 711q-2 -2 -2 -7.5t-2 -9.5h387l114 -231h383l117 231h367q-2 4 -2 9.5t-2 9.5l-256 594h-848zM1812 803q12 -29 21.5 -72t9.5 -76v-577q0 -33 -22.5 -55.5t-53.5 -22.5h-1689q-33 0 -55.5 22.5t-22.5 55.5v577q0 33 9 76t22 72l284 663q12 29 44 49.5t63 20.5h999 q31 0 63 -20.5t44 -49.5l284 -663v0z" />
<glyph unicode="&#xf01d;" horiz-adv-x="1597" d="M1174 795q16 -6 16 -27q0 -20 -16 -27l-545 -315q-8 -4 -15 -4q-8 0 -16 4q-16 10 -16 27v628q0 18 16 29q20 8 31 0zM799 209q117 0 218 44t177 120t120 177t44 218t-44 218t-120 177t-177.5 120t-217.5 44q-117 0 -218.5 -44t-177 -120t-119.5 -177t-44 -218t44 -218 t119.5 -177t177 -120t218.5 -44zM799 1567q166 0 311 -62.5t254 -171t171 -254t62 -311.5t-62 -311.5t-171 -254t-254 -171t-311 -62.5t-311.5 62.5t-254 171t-171 254t-62.5 311.5t62.5 311.5t171 254t254 171t311.5 62.5z" />
<glyph unicode="&#xf01e;" horiz-adv-x="1591" d="M1556 707q16 -4 26.5 -16.5t8.5 -28.5q-20 -147 -89.5 -274.5t-176 -220.5t-242 -145.5t-284.5 -52.5q-166 0 -311.5 62.5t-254 171t-171 254t-62.5 311.5t62.5 311.5t171 254t254 171t311.5 62.5q141 0 271 -48.5t239 -140.5l161 162q35 35 58.5 24.5t23.5 -57.5v-463 q0 -33 -22 -55q-10 -10 -23.5 -16t-29.5 -6h-463q-47 0 -58.5 23.5t23.5 58.5l160 159q-72 57 -159 88t-181 31q-117 0 -218.5 -44t-177 -120t-119.5 -177t-44 -218t44 -218t119.5 -177t177 -120t218.5 -44q104 0 198.5 37t169 101.5t123.5 153.5t64 191q0 16 14 27 q14 10 31 8l157 -20v0z" />
<glyph unicode="&#xf021;" horiz-adv-x="1916" d="M1843 1282q43 23 63.5 5.5t4.5 -62.5l-150 -439q-10 -33 -39 -45t-59 -4l-438 150q-45 16 -46 40.5t40 47.5l202 100q-51 78 -122.5 134.5t-159.5 86.5q-111 37 -221.5 28t-207 -56t-170 -129t-110.5 -193q-6 -16 -20.5 -22t-30.5 -2l-152 51q-16 6 -23 20.5t-1 30.5 q53 156 159.5 273.5t243.5 185t295 81t316 -39.5q133 -47 240.5 -134t180.5 -208l205 100v0zM1690 561q16 -6 23 -20.5t1 -30.5q-53 -158 -159.5 -274.5t-243.5 -184t-296 -81t-315 39.5q-135 47 -241.5 134t-179.5 208l-205 -100q-43 -23 -63.5 -5.5t-4.5 64.5l150 437 q10 33 39 45t59 4l438 -150q45 -16 46 -40.5t-42 -47.5l-202 -100q53 -78 123.5 -134.5t160.5 -86.5q111 -37 221.5 -28t207 56t170 129t110.5 193q6 16 20.5 22t30.5 2l152 -51v0z" />
<glyph unicode="&#xf022;" d="M729 614q-16 0 -26.5 11.5t-10.5 27.5v76q0 16 10.5 27.5t26.5 11.5h768q39 0 39 -39v-76q0 -39 -39 -39h-768v0zM729 922q-16 0 -26.5 11t-10.5 28v75q0 16 10.5 27.5t26.5 11.5h768q39 0 39 -39v-75q0 -39 -39 -39h-768v0zM729 307q-16 0 -26.5 11.5t-10.5 27.5v76 q0 16 10.5 27.5t26.5 11.5h768q39 0 39 -39v-76q0 -39 -39 -39h-768v0zM346 922q-39 0 -39 39v75q0 39 39 39h154q16 0 27.5 -11t11.5 -28v-75q0 -16 -11.5 -27.5t-27.5 -11.5h-154v0zM346 307q-39 0 -39 39v76q0 39 39 39h154q16 0 27.5 -11.5t11.5 -27.5v-76 q0 -16 -11.5 -27.5t-27.5 -11.5h-154v0zM346 614q-39 0 -39 39v76q0 39 39 39h154q16 0 27.5 -11.5t11.5 -27.5v-76q0 -16 -11.5 -27.5t-27.5 -11.5h-154v0zM1690 1229h-1536v-1075h1536v1075zM1729 1536q47 0 80.5 -34t33.5 -81v-1306q0 -47 -33.5 -81t-80.5 -34h-1614 q-47 0 -81 34t-34 81v1306q0 47 34 81t81 34h1614v0z" />
<glyph unicode="&#xf023;" horiz-adv-x="1253" d="M940 1018q0 66 -24.5 123t-67.5 99t-100.5 66.5t-120.5 24.5q-66 0 -122 -24.5t-99.5 -66.5t-68 -99.5t-24.5 -122.5v-156h627v156zM694 449q29 18 47.5 48.5t18.5 65.5q0 55 -39 95t-94 40t-94 -40t-39 -95q0 -35 18 -65.5t47 -46.5l-65 -287h266zM1176 854 q35 -12 56 -42t21 -69v-626q0 -47 -34.5 -82t-81.5 -35h-1020q-47 0 -82 35t-35 82v626q0 39 21.5 69t56.5 42v164q0 113 43 213t117.5 175t175 118t213.5 43t213 -43t175 -118t118 -175.5t43 -212.5v-164v0z" />
<glyph unicode="&#xf024;" d="M1778 1360q29 16 47 6t18 -43v-748q0 -31 -18.5 -64.5t-46.5 -49.5q-113 -68 -207 -87.5t-164 -15.5q-82 4 -145 33q-51 27 -99.5 51.5t-99.5 43t-107.5 29.5t-124.5 11q-55 -2 -124 -18q-59 -14 -143.5 -45t-188.5 -88q-29 -16 -48.5 -4t-19.5 45v745q0 33 19.5 66 t48.5 49q104 55 188 86t144 45q70 16 124 18q68 0 124.5 -11t107.5 -29.5t99 -43t100 -51.5q63 -29 145 -33q70 -4 164 15.5t207 87.5zM307 1382q0 -41 -20.5 -74.5t-55.5 -56.5v-1212q0 -16 -11 -27.5t-27 -11.5h-78q-16 0 -26.5 11.5t-10.5 27.5v1212q-35 23 -56.5 56.5 t-21.5 74.5q0 63 45 108.5t109 45.5q63 0 108 -45.5t45 -108.5z" />
<glyph unicode="&#xf025;" horiz-adv-x="1916" d="M958 1567q174 0 345.5 -66.5t307.5 -180.5t221 -266.5t85 -326.5q0 -182 -78 -350l-27 -60l-174 -26q-27 -104 -110.5 -173t-196.5 -69v-41q0 -16 -12 -27.5t-29 -11.5h-80q-16 0 -27.5 11.5t-11.5 27.5v719q0 16 11.5 28.5t27.5 12.5h80q16 0 28.5 -12.5t12.5 -28.5v-39 q88 0 161 -44t114 -116l39 7q33 90 32 192q0 125 -65.5 233.5t-170 190.5t-232.5 129t-251 47t-250.5 -47t-232 -128t-170 -190.5t-65.5 -232.5q0 -104 32 -194l39 -7q41 72 114 116t161 44v39q0 16 12 28.5t29 12.5h80q16 0 27 -12.5t11 -28.5v-719q0 -16 -11 -27.5 t-27 -11.5h-80q-16 0 -28.5 11.5t-12.5 27.5v41q-55 0 -106.5 18.5t-91.5 50.5t-68.5 76t-40.5 97l-175 26l-26 60q-78 168 -78 352q0 172 85 324.5t221 266.5t307 180.5t345 66.5z" />
<glyph unicode="&#xf026;" horiz-adv-x="905" d="M784 1323q49 51 84 37t35 -86v-1012q0 -72 -34.5 -86t-84.5 37l-325 326h-420q-16 0 -27.5 11t-11.5 28v380q0 16 11.5 27.5t27.5 11.5h420l325 326v0z" />
<glyph unicode="&#xf027;" horiz-adv-x="1277" d="M1065 1178q29 16 60.5 8t48.5 -37q104 -182 104 -381q0 -201 -104 -381q-23 -41 -70 -41q-20 0 -39 12q-29 16 -38 48t7 61q84 145 84 301t-84 301q-16 29 -7 61t38 48zM784 1323q49 51 84 37t35 -86v-1012q0 -72 -34.5 -86t-84.5 37l-325 326h-420q-16 0 -27.5 11 t-11.5 28v380q0 16 11.5 27.5t27.5 11.5h420l325 326v0z" />
<glyph unicode="&#xf028;" horiz-adv-x="1916" d="M1065 1178q29 16 60.5 8t48.5 -37q104 -182 104 -381q0 -201 -104 -381q-23 -41 -70 -41q-20 0 -39 12q-29 16 -38 48t7 61q84 145 84 301t-84 301q-16 29 -7 61t38 48zM1432 1341q82 -131 123.5 -275t41.5 -298q0 -309 -167 -573q-10 -18 -29 -27.5t-37 -9.5 q-25 0 -43 12q-29 16 -36 49t11 62q141 225 142 487q0 262 -142 487q-18 29 -11 62t36 49q29 18 61 11t50 -36zM1686 1532q115 -174 173 -366.5t58 -397.5t-58.5 -397.5t-172.5 -364.5q-10 -18 -29 -27.5t-37 -9.5q-25 0 -45 13q-29 18 -35 51t12 59q100 154 152.5 325 t52.5 351t-52 351t-153 323q-18 29 -12 61.5t35 50.5q29 16 61 10.5t50 -32.5zM784 1323q49 51 84 37t35 -86v-1012q0 -72 -34.5 -86t-84.5 37l-325 326h-420q-16 0 -27.5 11t-11.5 28v380q0 16 11.5 27.5t27.5 11.5h420l325 326v0z" />
<glyph unicode="&#xf029;" horiz-adv-x="1536" d="M1397 139h139v-139h-139v139zM1116 139h139v-139h-139v139zM1397 698h139v-419h-420v139h-139v-418h-139v698h417v-139h142v139zM1255 1116h-139v139h139v-139zM1397 1397h-420v-420h420v420zM1536 1536v-698h-698v698h698zM279 420h141v-141h-141v141zM139 139h420v420 h-420v-420zM0 698h698v-698h-698v698zM279 1255h141v-139h-141v139zM139 977h420v420h-420v-420zM0 1536h698v-698h-698v698z" />
<glyph unicode="&#xf02a;" d="M154 0h-154v1536h154v-1536zM264 0h-37v1536h37v-1536zM473 0h-117v1536h117v-1536zM1843 0h-153v1536h153v-1536zM1616 0h-37v1536h37v-1536zM1448 0h-39v1536h39v-1536zM1298 0h-77v1536h77v-1536zM1167 0h-153v1536h153v-1536zM940 0h-37v1536h37v-1536zM791 0h-76 v1536h76v-1536zM623 0h-78v1536h78v-1536z" />
<glyph unicode="&#xf02b;" horiz-adv-x="1488" d="M313 1106q49 0 83 34t34 83t-34 82.5t-83 33.5t-82.5 -33.5t-33.5 -82.5t33.5 -83t82.5 -34zM1454 702q33 -39 34 -88t-34 -84l-526 -526q-35 -35 -86 -36t-86 36l-670 750q-35 37 -60.5 96t-25.5 111v454q0 49 35 85t86 36h454q51 0 113 -24.5t94 -61.5l672 -748v0z" />
<glyph unicode="&#xf02c;" horiz-adv-x="1875" d="M313 1106q47 0 82 35t35 82q0 49 -35 83.5t-82 34.5q-49 0 -83.5 -34.5t-34.5 -83.5q0 -47 34.5 -82t83.5 -35zM1452 702q33 -37 34 -86t-34 -84l-526 -524q-35 -35 -86.5 -37t-83.5 37l-670 746q-35 39 -60.5 98t-25.5 109v454q0 49 35 85t86 36h454q25 0 53.5 -6 t57.5 -18.5t54.5 -28t41.5 -33.5l670 -748v0zM1841 700q35 -37 35 -87t-35 -85l-524 -524q-35 -35 -86 -36t-86 36l-12 14l514 514q35 35 34.5 84.5t-34.5 85.5l-670 748q-31 35 -84 56.5t-102 27.5h174q51 0 112.5 -24.5t93.5 -61.5l670 -748v0z" />
<glyph unicode="&#xf02d;" horiz-adv-x="1710" d="M500 961q-10 -39 26 -39h615q16 0 30.5 11t18.5 28l24 75q4 16 -3 27.5t-23 11.5h-615q-16 0 -31.5 -11t-19.5 -28zM569 1190q-4 -16 3.5 -26.5t23.5 -10.5h614q16 0 30.5 10.5t21.5 26.5l22 78q4 16 -3 27.5t-24 11.5h-614q-16 0 -30.5 -11.5t-20.5 -27.5zM1683 1186 q41 -53 19 -129l-283 -905q-18 -66 -77.5 -109t-127.5 -43h-946q-41 0 -79.5 14.5t-73.5 39t-61.5 58t-41.5 72.5q-25 68 -2 127q2 16 4 31.5t4 34.5q0 10 -4 20.5t-2 20.5q2 16 15.5 31.5t25.5 35.5q23 37 45.5 90.5t32.5 92.5q4 16 -1 30.5t-1 26.5q4 16 16.5 27.5 t20.5 23.5q10 18 21.5 42t21.5 49.5t16 50t8 40.5t-2 33t0 29q6 16 20.5 26.5t24.5 24.5q10 12 21.5 34.5t23 49.5t19.5 52.5t10 45.5q2 12 -4 24.5t-2 27.5q4 14 18.5 29.5t26.5 31.5q16 25 28.5 58.5t30 61t46 43t77.5 1.5l-2 -4q31 10 54 10h780q78 0 119 -57 q41 -53 18 -129l-283 -906q-18 -63 -77.5 -107t-126.5 -44h-893q-10 0 -20.5 -2t-18.5 -12q-12 -20 0 -56q16 -43 60 -75.5t87 -32.5h946q29 0 57.5 21.5t37.5 47.5l309 987q4 16 5 29.5t-1 28.5q41 -14 61 -43z" />
<glyph unicode="&#xf02e;" horiz-adv-x="1253" d="M115 -31q-47 0 -81 34t-34 81v1337q0 47 34 81t81 34h1024q47 0 80.5 -34t33.5 -81v-1337q0 -47 -33.5 -81t-80.5 -34t-80 33l-432 432l-432 -432q-33 -33 -80 -33z" />
<glyph unicode="&#xf02f;" d="M1575 231q0 16 -11.5 27.5t-27.5 11.5h-1229q-16 0 -27.5 -11t-11.5 -28v-38q0 -16 11.5 -26.5t27.5 -10.5h1229q16 0 27.5 10t11.5 27v38zM1614 614q47 0 89 -18t72.5 -49t49 -73t18.5 -89v-346q0 -39 -39 -39h-1765q-39 0 -39 39v346q0 47 18.5 89t50 73t73.5 49t89 18 h1383v0zM1536 729h-1229v731q0 31 22.5 53.5t55.5 22.5h651v-383q0 -49 34 -83t81 -34h385v-307zM1536 1153h-385v383z" />
<glyph unicode="&#xf030;" d="M922 172q98 0 186 38t152.5 103.5t102.5 152.5t38 187q0 98 -38 186.5t-102.5 153t-152.5 102.5t-186 38t-186.5 -38t-153 -102.5t-102.5 -152.5t-38 -187q0 -100 38 -187t102.5 -152.5t153 -103.5t186.5 -38zM1729 1307q47 0 80.5 -35t33.5 -82v-1075q0 -47 -33.5 -81 t-80.5 -34h-1614q-47 0 -81 34t-34 81v1075q0 47 34 82t81 35h366l58 125q18 43 66 73.5t95 30.5h443q47 0 95 -30.5t67 -73.5l57 -125h367v0zM922 979q68 0 127 -25.5t103 -69.5t69.5 -103.5t25.5 -127.5t-25.5 -127t-69.5 -104t-103.5 -70.5t-126.5 -25.5 q-68 0 -127.5 25.5t-103.5 70.5t-69.5 104.5t-25.5 126.5q0 68 25.5 127.5t69.5 103.5t103.5 69.5t127.5 25.5z" />
<glyph unicode="&#xf031;" horiz-adv-x="1644" d="M0 0l2 80q10 4 29.5 8t48.5 8q92 18 108 33q16 10 50 68l233 614l277 725h73h53l11 -20l202 -482q33 -78 64 -151.5t59 -145.5q29 -72 52.5 -130t42.5 -103q12 -29 28.5 -70t36.5 -94q23 -66 64 -150q25 -49 34 -57q20 -18 68 -24q25 -2 49.5 -9.5t52.5 -17.5 q6 -37 7 -55v-10.5t-3 -16.5q-43 0 -90 2t-98 6q-53 4 -99 6t-87 2h-80t-53 -2l-199 -10l-57 -2q0 20 1 39.5t3 38.5l129 26q57 14 67 25q12 8 13 27q0 14 -7 30l-47 115l-90 227l-446 2q-12 -29 -37 -96t-66 -178q-23 -63 -22 -84q0 -27 16 -43q14 -10 40 -17.5t63 -13.5 q14 -4 84 -12v-59q0 -16 -2 -27q-35 0 -121 5t-224 16l-49 -9q-43 -8 -83 -11t-81 -3h-20zM549 655q135 -2 216 -4t105 0l29 2q-18 51 -40.5 111.5t-51.5 130.5t-51.5 122t-38.5 87z" />
<glyph unicode="&#xf032;" horiz-adv-x="1419" d="M0 0l2 94q27 6 68 12q39 6 69.5 13.5t55.5 17.5q8 14 13 26.5t7 24.5q6 33 8 81t2 112l-2 498q-2 39 -3 139t-5 266q-4 88 -12 109q-4 8 -13 10q-20 14 -69 16q-23 0 -115 13l-4 84l262 6l383 12h45q8 2 15.5 2h13.5t21.5 -1t39.5 -1h76q92 0 193 -27q18 -4 42.5 -13 t53.5 -26q63 -31 104 -75q45 -47 66 -105q10 -29 15 -58.5t5 -62.5q0 -72 -32 -129q-31 -57 -95 -104q-16 -12 -54 -30.5t-97 -47.5q178 -41 268 -145q92 -104 92 -236q0 -72 -28 -162q-23 -66 -72 -116q-66 -72 -141 -109q-78 -35 -205 -59q-70 -12 -199 -11l-199 5 q-63 2 -138 -2.5t-163 -10.5q-25 -2 -93 -4t-181 -6zM545 889q25 -4 52.5 -6t57.5 -2q176 0 267 65q90 66 90 225q0 113 -86 187q-84 76 -258 76q-53 0 -131 -15q0 -12 1 -31.5t3 -44.5q2 -51 4 -119.5t0 -158.5v-98v-78zM559 143q74 -33 141 -32q131 0 220 41 q82 39 122 112q18 37 28.5 82t10.5 100q0 113 -43 181q-59 94 -141 125q-80 33 -250 32q-37 0 -61.5 -3t-40.5 -7v-143v-174l4 -271q0 -16 10 -43z" />
<glyph unicode="&#xf033;" horiz-adv-x="1054" d="M0 0l18 84q12 4 32 9t46 11q41 10 71 19.5t50 19.5q29 39 41 103l29 137l57 268l12 64q23 119 41.5 178t18.5 63l30 156l17 64l22 135l9 49v39q-45 23 -148 28q-14 0 -23.5 1.5t-17.5 1.5l21 104l325 -14q31 -2 49.5 -2h26.5q35 0 89 2t132 6q41 4 68.5 6t38.5 2 q-2 -10 -3 -19.5t-3 -19.5q-4 -10 -7.5 -22.5t-7.5 -28.5q-49 -16 -110 -31q-66 -16 -105 -31q-12 -33 -24 -88q-6 -25 -9.5 -45t-5.5 -37q-23 -100 -40 -175.5t-27 -129.5l-64 -311l-39 -158l-43 -235l-14 -45v-10.5t2 -16.5q35 -8 64.5 -13t58.5 -9q4 0 21.5 -2.5 l45.5 -6.5q-2 -18 -3 -32.5t-3 -26.5q-2 -6 -4 -16.5t-6 -22.5q-8 0 -14 -1t-10 -1q-18 -2 -28.5 -2h-14.5h-11.5t-17.5 4q-8 0 -45 4t-105 12l-202 2q-61 0 -181 -12q-39 -4 -63.5 -6t-36.5 -2z" />
<glyph unicode="&#xf034;" d="M1808 244q29 0 34 -13.5t-13 -31.5l-184 -187q-16 -12 -33 -12q-16 0 -31 12l-184 187q-18 18 -13 31.5t31 13.5h121v1048h-121q-27 0 -32 13.5t14 33.5l184 185q14 12 33 12q14 0 31 -12l184 -185q18 -20 13 -33.5t-34 -13.5h-118v-1048h118zM1264 1534q2 -39 1 -97.5 t1 -138.5v-100v-57q0 -14 -1 -27.5t-3 -23.5q-20 -8 -37 -11.5t-31 -7.5q-27 51 -53 129q-29 82 -37 92q-12 14 -27 21q-10 4 -60 4h-138h-31t-35 -4q-6 -43 -6 -72l2 -151v-334l2 -359v-147q0 -72 10 -117q8 -4 21.5 -8t34.5 -8q4 0 21 -4t50 -13q27 -10 49 -18 q4 -20 4 -33.5v-17.5v-11.5t-2 -17.5h-34q-47 0 -88 2t-76 6t-95.5 6t-148.5 2q-16 0 -57 -4t-109 -10q-29 -2 -45 -3t-24 -1q0 10 -1.5 16.5t-1.5 10.5l-2 24v10q18 31 80 50q94 27 135 49q4 10 6.5 25.5t4.5 31.5q4 68 6 176.5t0 255.5l-4 428q-2 90 -2 142.5t-4 72.5 q0 8 -7 15q-4 6 -12 6q-16 4 -63 4h-127q-90 0 -119 -21q-41 -29 -121 -153q-23 -35 -35 -35q-23 12 -36 23.5t-19 19.5q14 37 34.5 110.5t45.5 184.5q8 33 13 54.5t9 31.5h58q4 -6 6 -10t4 -9q29 -57 41 -71q16 -4 129 -4q35 0 66.5 1t60.5 1l20 2l113 2l213 -2h289l55 10 q10 8 27 53q2 6 4 12.5t6 16.5l43 2h10.5t16.5 -2z" />
<glyph unicode="&#xf035;" horiz-adv-x="1536" d="M86 1227q-20 -29 -33 -29q-23 10 -35 19.5t-18 15.5q14 29 33.5 87t44.5 146q6 27 11 43.5t9 26.5h56q8 -12 10 -14q27 -47 37 -58q2 0 35.5 -1t77.5 -1h90.5h74.5h123l19 2h108h203h416l53 6q12 10 24 46l4.5 9l6.5 13h39h28v-188v-80v-45q0 -12 -1 -21.5t-3 -19.5 q-33 -10 -63 -15q-25 37 -52 103q-27 59 -34 74q-12 10 -27 14q-6 2 -42 3t-85 1h-103.5h-97.5h-28.5t-34.5 -2q-2 -18 -3 -32.5t-1 -24.5l4 -445l-2 -119q0 -61 12 -92q12 -6 53 -12q4 0 20.5 -4t45.5 -10q14 -4 26.5 -7.5t22.5 -7.5q2 -16 3 -25.5t1 -13.5t-1 -10t-1 -14 h-33q-94 0 -157 6q-66 6 -236 6q-14 0 -53 -3t-105 -7q-27 -2 -43 -3t-24 -1q0 16 -2 20v21v8q20 27 73 39q90 20 132 41q4 8 6 19t4 26q0 18 1 70.5t1 120t-1 142t-2 139t-2 107.5t-1 47q0 8 -6 13q-2 2 -13 6q-14 2 -59 2h-123q-20 0 -62 -1t-85 -2t-78 -4t-41 -7 q-41 -25 -117 -123zM1524 264q12 -12 12 -31q0 -18 -12 -30l-185 -187q-20 -18 -33.5 -13t-13.5 34v119h-1048v-119q0 -29 -13.5 -34t-31.5 13l-187 187q-12 12 -12 30t12 31l187 185q18 20 31.5 14t13.5 -33v-121h1048v121q0 27 13.5 33t33.5 -14l185 -185v0z" />
<glyph unicode="&#xf036;" d="M0 1036q0 33 22.5 55.5t55.5 22.5h1536q31 0 53.5 -22.5t22.5 -55.5v-114q0 -33 -22.5 -54.5t-53.5 -21.5h-1536q-33 0 -55.5 21.5t-22.5 54.5v114zM999 1536q31 0 53.5 -22.5t22.5 -53.5v-117q0 -31 -22.5 -53t-53.5 -22h-921q-33 0 -55.5 22.5t-22.5 52.5v117 q0 31 22.5 53.5t55.5 22.5h921zM0 614q0 33 22.5 55.5t55.5 22.5h1075q31 0 53.5 -22.5t22.5 -55.5v-114q0 -33 -22.5 -55.5t-53.5 -22.5h-1075q-33 0 -55.5 22.5t-22.5 55.5v114zM0 193q0 31 22.5 53t55.5 22h1689q31 0 53.5 -22.5t22.5 -52.5v-115q0 -33 -22.5 -55.5 t-53.5 -22.5h-1689q-33 0 -55.5 22.5t-22.5 55.5v115z" />
<glyph unicode="&#xf037;" d="M78 1036q0 33 21.5 55.5t54.5 22.5h1536q33 0 55 -22.5t22 -55.5v-114q0 -33 -22.5 -54.5t-54.5 -21.5h-1536q-33 0 -54.5 21.5t-21.5 54.5v114zM1382 1536q33 0 55.5 -22.5t22.5 -53.5v-117q0 -31 -22.5 -53t-55.5 -22h-921q-33 0 -54.5 22.5t-21.5 52.5v117 q0 31 21.5 53.5t54.5 22.5h921zM307 614q0 33 22.5 55.5t55.5 22.5h1075q31 0 53.5 -22.5t22.5 -55.5v-114q0 -33 -22.5 -55.5t-53.5 -22.5h-1075q-33 0 -55.5 22.5t-22.5 55.5v114zM0 193q0 31 22.5 53t55.5 22h1689q31 0 53.5 -22.5t22.5 -52.5v-115q0 -33 -22.5 -55.5 t-53.5 -22.5h-1689q-33 0 -55.5 22.5t-22.5 55.5v115z" />
<glyph unicode="&#xf038;" d="M154 1036q0 33 22.5 55.5t54.5 22.5h1536q31 0 53.5 -22.5t22.5 -55.5v-114q0 -33 -22.5 -54.5t-53.5 -21.5h-1536q-33 0 -55 21.5t-22 54.5v114zM1767 1536q31 0 53.5 -22.5t22.5 -53.5v-117q0 -31 -22.5 -53t-53.5 -22h-921q-33 0 -55.5 22.5t-22.5 52.5v117 q0 31 22.5 53.5t55.5 22.5h921zM614 614q0 33 22.5 55.5t55.5 22.5h1075q31 0 53.5 -22.5t22.5 -55.5v-114q0 -33 -22.5 -55.5t-53.5 -22.5h-1075q-33 0 -55.5 22.5t-22.5 55.5v114zM0 193q0 31 22.5 53t55.5 22h1689q31 0 53.5 -22.5t22.5 -52.5v-115q0 -33 -22.5 -55.5 t-53.5 -22.5h-1689q-33 0 -55.5 22.5t-22.5 55.5v115z" />
<glyph unicode="&#xf039;" d="M0 1036q0 33 22.5 55.5t55.5 22.5h1689q31 0 53.5 -22.5t22.5 -55.5v-114q0 -33 -22.5 -54.5t-53.5 -21.5h-1689q-33 0 -55.5 21.5t-22.5 54.5v114zM1767 1536q31 0 53.5 -22.5t22.5 -53.5v-117q0 -31 -22.5 -53t-53.5 -22h-1689q-33 0 -55.5 22.5t-22.5 52.5v117 q0 31 22.5 53.5t55.5 22.5h1689zM0 614q0 33 22.5 55.5t55.5 22.5h1689q31 0 53.5 -22.5t22.5 -55.5v-114q0 -33 -22.5 -55.5t-53.5 -22.5h-1689q-33 0 -55.5 22.5t-22.5 55.5v114zM0 193q0 31 22.5 53t55.5 22h1689q31 0 53.5 -22.5t22.5 -52.5v-115q0 -33 -22.5 -55.5 t-53.5 -22.5h-1689q-33 0 -55.5 22.5t-22.5 55.5v115z" />
<glyph unicode="&#xf03a;" d="M461 193q0 31 22.5 53t55.5 22h1228q31 0 53.5 -22.5t22.5 -52.5v-115q0 -33 -22.5 -55.5t-53.5 -22.5h-1228q-33 0 -55.5 22.5t-22.5 55.5v115zM461 614q0 33 22.5 55.5t55.5 22.5h1228q31 0 53.5 -22.5t22.5 -55.5v-114q0 -33 -22.5 -55.5t-53.5 -22.5h-1228 q-33 0 -55.5 22.5t-22.5 55.5v114zM1767 1536q31 0 53.5 -22.5t22.5 -53.5v-117q0 -31 -22.5 -53t-53.5 -22h-1228q-33 0 -55.5 22.5t-22.5 52.5v117q0 31 22.5 53.5t55.5 22.5h1228zM461 1036q0 33 22.5 55.5t55.5 22.5h1228q31 0 53.5 -22.5t22.5 -55.5v-114 q0 -33 -22.5 -54.5t-53.5 -21.5h-1228q-33 0 -55.5 21.5t-22.5 54.5v114zM307 1343q0 -31 -22.5 -53t-53.5 -22h-153q-33 0 -55.5 22.5t-22.5 52.5v117q0 31 22.5 53.5t55.5 22.5h153q31 0 53.5 -22.5t22.5 -53.5v-117zM307 922q0 -33 -22.5 -54.5t-53.5 -21.5h-153 q-33 0 -55.5 21.5t-22.5 54.5v114q0 33 22.5 55.5t55.5 22.5h153q31 0 53.5 -22.5t22.5 -55.5v-114zM307 500q0 -33 -22.5 -55.5t-53.5 -22.5h-153q-33 0 -55.5 22.5t-22.5 55.5v114q0 33 22.5 55.5t55.5 22.5h153q31 0 53.5 -22.5t22.5 -55.5v-114zM231 268 q31 0 53.5 -22.5t22.5 -52.5v-115q0 -33 -22.5 -55.5t-53.5 -22.5h-153q-33 0 -55.5 22.5t-22.5 55.5v115q0 31 22.5 53t55.5 22h153z" />
<glyph unicode="&#xf03b;" d="M522 829q16 -16 17 -36q0 -18 -17 -35l-215 -215q-23 -23 -39 -17t-16 39v152h-213q-39 0 -39 39v75q0 39 39 39h213v154q0 31 16.5 37t38.5 -17zM729 1536q39 0 39 -39v-1458q0 -39 -39 -39h-76q-39 0 -39 39v1458q0 39 39 39h76v0zM999 846q-33 0 -55 21.5t-22 54.5 v114q0 33 22.5 55.5t54.5 22.5h691q33 0 55 -22.5t22 -55.5v-114q0 -33 -22.5 -54.5t-54.5 -21.5h-691v0zM999 1268q-33 0 -55 22.5t-22 52.5v117q0 31 22.5 53.5t54.5 22.5h537q33 0 55.5 -22.5t22.5 -53.5v-117q0 -31 -22.5 -53t-55.5 -22h-537v0zM999 422q-33 0 -55 22.5 t-22 55.5v114q0 33 22.5 55.5t54.5 22.5h615q31 0 53.5 -22.5t22.5 -55.5v-114q0 -33 -22.5 -55.5t-53.5 -22.5h-615v0zM1767 268q31 0 53.5 -22.5t22.5 -52.5v-115q0 -33 -22.5 -55.5t-53.5 -22.5h-768q-33 0 -55 22.5t-22 55.5v115q0 31 22.5 53t54.5 22h768v0z" />
<glyph unicode="&#xf03c;" d="M1804 819q16 0 27.5 -11t11.5 -28v-75q0 -16 -11 -27.5t-28 -11.5h-215v-154q0 -31 -15 -38t-38 15l-217 218q-14 18 -14 36q0 16 14 35l217 215q23 23 38 17t15 -39v-152h215v0zM1190 1536q16 0 27.5 -11.5t11.5 -27.5v-1458q0 -16 -11.5 -27.5t-27.5 -11.5h-76 q-39 0 -39 39v1458q0 39 39 39h76v0zM76 846q-31 0 -53.5 21.5t-22.5 54.5v114q0 33 22.5 55.5t53.5 22.5h692q31 0 53.5 -22.5t22.5 -55.5v-114q0 -33 -22.5 -54.5t-53.5 -21.5h-692v0zM76 1268q-31 0 -53.5 22.5t-22.5 52.5v117q0 31 22.5 53.5t53.5 22.5h538 q31 0 53.5 -22.5t22.5 -53.5v-117q0 -31 -22.5 -53t-53.5 -22h-538v0zM76 422q-31 0 -53.5 22.5t-22.5 55.5v114q0 33 22.5 55.5t53.5 22.5h614q33 0 55.5 -22.5t22.5 -55.5v-114q0 -33 -22.5 -55.5t-55.5 -22.5h-614v0zM844 268q33 0 55.5 -22.5t22.5 -52.5v-115 q0 -33 -22.5 -55.5t-55.5 -22.5h-768q-31 0 -53.5 22.5t-22.5 55.5v115q0 31 22.5 53t53.5 22h768v0z" />
<glyph unicode="&#xf03d;" d="M1796 1339q47 -20 47 -69v-1127q0 -49 -47 -69q-16 -6 -29 -6q-33 0 -55 22l-483 471v-237q0 -47 -18.5 -89t-49.5 -74t-72.5 -50.5t-89.5 -18.5h-768q-47 0 -89 18.5t-73.5 50.5t-50 73.5t-18.5 89.5v768q0 47 18.5 89t50 72.5t73.5 49t89 18.5h768q47 0 89 -18.5 t73 -49t49.5 -72.5t18.5 -89v-240l483 471q23 23 55 23q13 -1 29 -7z" />
<glyph unicode="&#xf03e;" d="M463 920q-66 0 -111 45t-45 108q0 66 45 111t111 45q63 0 108 -45t45 -111q0 -63 -45 -108t-108 -45zM1536 307h-1229v105l277 360l188 -156l354 537l410 -424v-422zM1690 1382h-1536v-1228h1536v1228zM1729 1536q47 0 80.5 -34t33.5 -81v-1306q0 -47 -33.5 -81 t-80.5 -34h-1614q-47 0 -81 34t-34 81v1306q0 47 34 81t81 34h1614v0z" />
<glyph unicode="&#xf040;" horiz-adv-x="1536" d="M1501 1389q35 -35 35 -84.5t-35 -83.5l-119 -119l-280 280l119 119q35 35 84 35t84 -35l57 -55l55 -57v0zM1030 1075q20 20 0 43q-10 10 -22.5 10t-20.5 -10l-690 -688q-10 -10 -10 -22.5t10 -22.5q8 -8 22 -8q12 0 21 8zM1284 1004l-866 -867l-418 -137l137 418l867 866 z" />
<glyph unicode="&#xf041;" horiz-adv-x="1128" d="M565 723q57 0 108.5 21.5t89.5 59.5t59.5 89t21.5 108t-21.5 108.5t-59.5 90.5t-89 60.5t-109 21.5q-59 0 -109 -21.5t-89 -60.5t-60.5 -90t-21.5 -109q0 -57 21.5 -108t60.5 -89t89 -59.5t109 -21.5zM1128 1001q0 -84 -24.5 -159.5t-65.5 -143.5l-379 -661 q-41 -68 -95 -68t-93 68l-381 663q-41 68 -65.5 143t-24.5 158q0 117 44 220.5t121 180.5t180.5 121t219.5 44q117 0 219.5 -44t179 -121t120.5 -180.5t44 -220.5z" />
<glyph unicode="&#xf042;" horiz-adv-x="1597" d="M240 768q0 -117 44 -218t119.5 -177t177 -120t218.5 -44v1118q-117 0 -218.5 -44t-177 -120t-119.5 -177t-44 -218zM799 1567q166 0 311 -62.5t254 -171t171 -254t62 -311.5t-62 -311.5t-171 -254t-254 -171t-311 -62.5t-311.5 62.5t-254 171t-171 254t-62.5 311.5 t62.5 311.5t171 254t254 171t311.5 62.5z" />
<glyph unicode="&#xf043;" horiz-adv-x="1130" d="M389 268q59 0 100 41t41 101q0 43 -22 75q-6 8 -18.5 24.5t-26.5 39t-28.5 48.5t-22.5 54q-4 20 -23 17q-18 4 -24 -17q-8 -29 -21.5 -54.5t-28 -48t-27 -38.5t-18.5 -25q-23 -33 -22 -75q0 -59 41 -100.5t100 -41.5zM1040 838q43 -66 66.5 -141.5t23.5 -161.5 q0 -117 -44 -220.5t-120.5 -180.5t-180 -121t-220.5 -44t-220 44t-180 121t-121 180.5t-44 220.5q0 86 23.5 161.5t66.5 141.5q20 33 69.5 99.5t108 154.5t113.5 193.5t90 217.5q10 35 37 51.5t57 12.5q31 4 57.5 -12.5t36.5 -51.5q33 -113 89.5 -218t115 -193t107.5 -154.5 t69 -99.5z" />
<glyph unicode="&#xf044;" d="M1497 752l193 192v-637q0 -63 -25 -118.5t-67 -97.5t-97 -66.5t-119 -24.5h-1075q-63 0 -119.5 24.5t-97.5 66.5t-65.5 97.5t-24.5 118.5v922q0 63 24.5 119.5t65.5 97.5t97.5 65.5t119.5 24.5h1075q4 0 10.5 -1t10.5 -1l-191 -191h-905q-47 0 -80.5 -33.5t-33.5 -80.5 v-922q0 -47 33.5 -80.5t80.5 -33.5h1075q47 0 81 33.5t34 80.5v445zM1817 1419q27 -29 27.5 -66.5t-27.5 -66.5l-95 -92l-221 221l92 94q29 29 68 29t65 -29l46 -45l45 -45v0zM1411 1139q18 18 0 35q-18 16 -35 0l-510 -510q-18 -18 0 -35q6 -8 17 -8q10 0 16 8zM1612 1083 l-651 -651l-330 -108l108 329l652 652z" />
<glyph unicode="&#xf045;" d="M1817 1114q27 -25 26 -65q0 -39 -26 -64l-392 -391q-41 -41 -69.5 -28.5t-28.5 69.5v260q-207 0 -364.5 -43t-266 -116.5t-170 -174t-77.5 -215.5q-4 -27 -31 -27q-25 0 -29 27q-4 23 -4 42.5v37.5q0 166 56.5 312.5t173 256t293.5 173t419 65.5v231q0 57 28.5 69.5 t69.5 -28.5l392 -391v0zM1497 418q16 10 31.5 21.5t32.5 27.5l129 127v-287q0 -63 -25 -118.5t-67 -97.5t-97 -66.5t-119 -24.5h-1075q-63 0 -119.5 24.5t-97.5 66.5t-65.5 97.5t-24.5 118.5v922q0 63 24.5 119.5t65.5 97.5t97.5 65.5t119.5 24.5h836q-6 -31 -6 -63v-52 q-164 -20 -310 -78h-520q-47 0 -80.5 -33.5t-33.5 -80.5v-922q0 -47 33.5 -80.5t80.5 -33.5h1075q47 0 81 33.5t34 80.5v111v0z" />
<glyph unicode="&#xf046;" d="M1821 1337q23 -23 22.5 -55.5t-22.5 -54.5l-711 -711l-98 -98q-23 -23 -55.5 -23t-55.5 23l-100 98l-393 395q-23 23 -23 55.5t23 55.5l98 98q23 23 55.5 23t54.5 -23l340 -340l654 656q23 23 56.5 22.5t55.5 -22.5l99 -99v0zM1497 633l193 192v-518q0 -63 -25 -118.5 t-67 -97.5t-97 -66.5t-119 -24.5h-1075q-63 0 -119.5 24.5t-97.5 66.5t-65.5 97.5t-24.5 118.5v922q0 63 24.5 119.5t65.5 97.5t97.5 65.5t119.5 24.5h1075q27 0 52 -6l-187 -187h-940q-47 0 -80.5 -33.5t-33.5 -80.5v-922q0 -47 33.5 -80.5t80.5 -33.5h1075q47 0 81 33.5 t34 80.5v326z" />
<glyph unicode="&#xf047;" horiz-adv-x="1597" d="M1579 811q18 -18 18 -43t-18 -43l-256 -256q-27 -27 -45 -19.5t-18 46.5v176h-361v-365h172q39 0 47 -18.5t-20 -44.5l-256 -256q-18 -18 -43 -19q-25 0 -43 19l-256 256q-27 27 -20 45t46 18h172v365h-360v-176q0 -39 -18.5 -46.5t-45.5 19.5l-256 256q-18 18 -18 43 t18 43l256 256q27 27 45.5 19.5t18.5 -46.5v-170h360v359h-172q-37 0 -45 18.5t19 44.5l256 256q18 18 43 19q25 0 43 -19l256 -256q27 -27 19.5 -45t-46.5 -18h-172v-359h361v170q0 39 18 46.5t45 -19.5l256 -256v0z" />
<glyph unicode="&#xf048;" horiz-adv-x="1075" d="M0 76q0 -31 22.5 -53.5t53.5 -22.5h153q33 0 55.5 22.5t22.5 53.5v1382q0 33 -22.5 55.5t-55.5 22.5h-153q-31 0 -53.5 -22.5t-22.5 -55.5v-1382zM324 723q-16 18 -16.5 45t16.5 43l653 707q14 18 41 18q6 0 22 -4q35 -18 35 -59v-1412q0 -41 -35 -57q-39 -14 -63 14 l-653 705v0z" />
<glyph unicode="&#xf049;" d="M0 76q0 -31 22.5 -53.5t53.5 -22.5h153q33 0 55.5 22.5t22.5 53.5v1382q0 33 -22.5 55.5t-55.5 22.5h-153q-31 0 -53.5 -22.5t-22.5 -55.5v-1382zM324 723q-16 18 -16.5 45t16.5 43l653 707q14 18 41 18q6 0 22 -4q35 -18 35 -59v-1412q0 -41 -35 -57q-39 -14 -63 14 l-653 705v0zM1092 723q-16 18 -16.5 45t16.5 43l653 707q14 18 41 18q6 0 22 -4q35 -18 35 -59v-1412q0 -41 -35 -57q-39 -14 -63 14l-653 705v0z" />
<glyph unicode="&#xf04a;" horiz-adv-x="1536" d="M16 723q-16 18 -16 44t16 44l654 707q14 18 41 18q10 0 22 -6q35 -14 35 -57v-1412q0 -41 -35 -57q-37 -16 -63 14l-654 705v0zM784 723q-16 18 -16 44t16 44l654 707q14 18 41 18q10 0 22 -6q35 -14 35 -57v-1412q0 -41 -35 -57q-37 -16 -63 14l-654 705v0z" />
<glyph unicode="&#xf04b;" horiz-adv-x="1349" d="M1315 829q35 -25 35 -61q0 -37 -35 -61l-1211 -697q-16 -10 -34 -10t-35 10q-35 20 -35 60v1396q0 39 35 60q37 23 69 0l1211 -697v0z" />
<glyph unicode="&#xf04c;" horiz-adv-x="1536" d="M1466 1536q29 0 49.5 -20.5t20.5 -49.5v-1396q0 -29 -20.5 -49.5t-49.5 -20.5h-489q-29 0 -49.5 20.5t-20.5 49.5v1396q0 29 20.5 49.5t49.5 20.5h489v0zM559 1536q29 0 49.5 -20.5t20.5 -49.5v-1396q0 -29 -20.5 -49.5t-49.5 -20.5h-489q-29 0 -49.5 20.5t-20.5 49.5 v1396q0 29 20.5 49.5t49.5 20.5h489v0z" />
<glyph unicode="&#xf04d;" horiz-adv-x="1536" d="M1466 1536q29 0 49.5 -20.5t20.5 -49.5v-1396q0 -29 -20.5 -49.5t-49.5 -20.5h-1396q-29 0 -49.5 20.5t-20.5 49.5v1396q0 29 20.5 49.5t49.5 20.5h1396v0z" />
<glyph unicode="&#xf04e;" horiz-adv-x="1536" d="M1520 813q16 -18 16 -45t-16 -45l-654 -705q-16 -18 -41 -18q-6 0 -22 4q-35 16 -35 57v1414q0 39 35 57q39 14 63 -14l654 -705v0zM752 813q16 -18 16 -45t-16 -45l-654 -705q-16 -18 -41 -18q-6 0 -22 4q-35 16 -35 57v1414q0 39 35 57q39 14 63 -14l654 -705v0z" />
<glyph unicode="&#xf050;" d="M1843 1458q0 33 -22.5 55.5t-55.5 22.5h-153q-31 0 -53.5 -22.5t-22.5 -55.5v-1382q0 -31 22.5 -53.5t53.5 -22.5h153q33 0 55.5 22.5t22.5 53.5v1382zM1520 813q16 -18 16 -45t-16 -45l-654 -705q-16 -18 -41 -18q-6 0 -22 4q-35 16 -35 57v1414q0 39 35 57 q39 14 63 -14l654 -705v0zM752 813q16 -18 16 -45t-16 -45l-654 -705q-16 -18 -41 -18q-6 0 -22 4q-35 16 -35 57v1414q0 39 35 57q39 14 63 -14l654 -705v0z" />
<glyph unicode="&#xf051;" horiz-adv-x="1075" d="M1075 1458q0 33 -22.5 55.5t-55.5 22.5h-153q-31 0 -53.5 -22.5t-22.5 -55.5v-1382q0 -31 22.5 -53.5t53.5 -22.5h153q33 0 55.5 22.5t22.5 53.5v1382zM752 813q16 -18 16 -45t-16 -45l-654 -705q-16 -18 -41 -18q-6 0 -22 4q-35 16 -35 57v1414q0 39 35 57q39 14 63 -14 l654 -705v0z" />
<glyph unicode="&#xf052;" horiz-adv-x="1536" d="M1466 338q29 0 49.5 -20.5t20.5 -49.5v-198q0 -29 -20.5 -49.5t-49.5 -20.5h-1396q-29 0 -49.5 20.5t-20.5 49.5v198q0 29 20.5 49.5t49.5 20.5h1396v0zM70 551q-47 0 -64 43q-18 43 14 76l699 698q20 20 49 20.5t49 -20.5l699 -698q33 -33 14 -76q-16 -43 -64 -43h-1396 v0z" />
<glyph unicode="&#xf053;" horiz-adv-x="964" d="M29 698q-29 29 -29 67t29 66l671 674q29 29 68 29t68 -29l100 -100q29 -29 29 -68t-29 -67l-508 -510l508 -500q29 -29 29 -66.5t-29 -66.5l-100 -102q-29 -29 -68 -29t-68 29l-671 673v0z" />
<glyph unicode="&#xf054;" horiz-adv-x="964" d="M936 834q29 -29 29 -68t-29 -68l-672 -671q-29 -29 -67.5 -29t-67.5 29l-100 100q-29 29 -29 67.5t29 67.5l508 508l-508 502q-29 29 -29 66.5t29 66.5l100 102q29 29 68 29t67 -29l672 -673v0z" />
<glyph unicode="&#xf055;" horiz-adv-x="1597" d="M1260 846q0 14 -10.5 23.5t-22.5 9.5h-314v346q0 33 -32 32h-164q-33 0 -33 -32v-346h-313q-33 0 -33 -33v-158q0 -33 33 -33h313v-344q0 -33 33 -32h164q33 0 32 32v344h314q12 0 22.5 9.5t10.5 23.5v158zM799 1567q166 0 311 -62.5t254 -171t171 -254t62 -311.5 t-62 -311.5t-171 -254t-254 -171t-311 -62.5t-311.5 62.5t-254 171t-171 254t-62.5 311.5t62.5 311.5t171 254t254 171t311.5 62.5z" />
<glyph unicode="&#xf056;" horiz-adv-x="1597" d="M1260 846q0 14 -10.5 23.5t-22.5 9.5h-856q-33 0 -33 -33v-158q0 -33 33 -33h856q12 0 22.5 9.5t10.5 23.5v158zM799 1567q166 0 311 -62.5t254 -171t171 -254t62 -311.5t-62 -311.5t-171 -254t-254 -171t-311 -62.5t-311.5 62.5t-254 171t-171 254t-62.5 311.5 t62.5 311.5t171 254t254 171t311.5 62.5z" />
<glyph unicode="&#xf057;" horiz-adv-x="1597" d="M1204 1012q23 23 0 47l-117 115q-25 25 -47 0l-243 -244l-222 221q-10 10 -23 10t-24 -10l-110 -113q-25 -23 0 -47l219 -219l-242 -244q-10 -10 -10 -23t10 -24l115 -116q10 -10 23.5 -10.5t23.5 10.5l244 243l219 -221q10 -10 23.5 -10t23.5 10l113 113q23 23 0 47 l-222 219l246 246v0zM1364 1335q117 -117 175 -264t58 -301t-58 -301t-175 -264t-264.5 -175.5t-301 -58.5t-301 58.5t-264.5 175.5t-175 264t-58 301t58.5 301.5t174.5 263.5q117 117 264.5 175.5t301 58.5t301 -58.5t264.5 -175.5z" />
<glyph unicode="&#xf058;" horiz-adv-x="1597" d="M1343 915q14 14 14.5 34t-14.5 34l-104 107q-16 14 -35.5 14t-34.5 -14l-452 -453q-14 -14 -33.5 -14t-34.5 14l-221 221q-14 14 -33.5 14t-36.5 -14l-104 -106q-14 -14 -14 -34t14 -34l319 -319q14 -14 38 -24.5t44 -10.5h56q20 0 43.5 10t38.5 25l550 550v0zM799 1567 q166 0 311 -62.5t254 -171t171 -254t62 -311.5t-62 -311.5t-171 -254t-254 -171t-311 -62.5t-311.5 62.5t-254 171t-171 254t-62.5 311.5t62.5 311.5t171 254t254 171t311.5 62.5z" />
<glyph unicode="&#xf059;" horiz-adv-x="1597" d="M983 702q25 20 49.5 46t46 57t34.5 69.5t13 90.5q0 68 -27.5 121t-73.5 87.5t-103.5 53t-114.5 18.5q-63 0 -113.5 -16.5t-85.5 -35.5t-53 -35.5t-20 -18.5q-16 -16 -3 -39l95 -115q4 -8 20 -12q12 0 23 6l10 8t27.5 17.5t39 16.5t46.5 7q41 0 69.5 -22.5t28.5 -57.5 q0 -37 -24.5 -64.5t-61.5 -60.5q-23 -18 -46.5 -40.5t-43 -51.5t-31.5 -63.5t-12 -79.5v-64q0 -12 9 -21t21 -9h164q12 0 20.5 9t8.5 21v51q0 39 25.5 66.5t62.5 60.5zM895 408q0 12 -8 21t-21 9h-164q-12 0 -21 -9t-9 -21v-156q0 -12 9 -21.5t21 -9.5h164q12 0 20.5 9.5 t8.5 21.5v156zM799 1567q166 0 311 -62.5t254 -171t171 -254t62 -311.5t-62 -311.5t-171 -254t-254 -171t-311 -62.5t-311.5 62.5t-254 171t-171 254t-62.5 311.5t62.5 311.5t171 254t254 171t311.5 62.5z" />
<glyph unicode="&#xf05a;" horiz-adv-x="1597" d="M1040 391q0 29 -28 29h-78v577q0 12 -8 21.5t-21 9.5h-303q-12 0 -20.5 -9t-8.5 -22v-139q0 -29 29 -29h86v-409h-78q-12 0 -21 -8.5t-9 -20.5v-139q0 -12 9 -21.5t21 -9.5h402q12 0 20 9.5t8 21.5v139zM686 1151q0 -12 9.5 -21.5t21.5 -9.5h188q12 0 20.5 9.5t8.5 21.5 v166q0 29 -29 29h-188q-12 0 -21.5 -8.5t-9.5 -20.5v-166zM799 1567q166 0 311 -62.5t254 -171t171 -254t62 -311.5t-62 -311.5t-171 -254t-254 -171t-311 -62.5t-311.5 62.5t-254 171t-171 254t-62.5 311.5t62.5 311.5t171 254t254 171t311.5 62.5z" />
<glyph unicode="&#xf05b;" horiz-adv-x="1536" d="M883 365q106 29 183 105.5t105 182.5h-172q-39 0 -38 39v154q0 16 11 26.5t27 10.5h172q-29 106 -105.5 183t-182.5 105v-172q0 -16 -10.5 -27t-26.5 -11h-154q-39 0 -39 38v172q-106 -29 -183 -105.5t-105 -182.5h174q16 0 26 -10.5t10 -26.5v-154q0 -16 -10 -27.5 t-26 -11.5h-174q29 -106 105.5 -183t182.5 -105v174q0 16 11.5 26t27.5 10h154q16 0 26.5 -10t10.5 -26v-174v0zM1497 883q16 0 27.5 -10.5t11.5 -26.5v-154q0 -39 -39 -39h-164q-18 -84 -59 -158.5t-99.5 -133t-133 -99.5t-158.5 -59v-164q0 -16 -10.5 -27.5t-26.5 -11.5 h-154q-39 0 -39 39v164q-84 18 -158.5 59t-133 99.5t-99.5 133t-59 158.5h-164q-39 0 -39 39v154q0 16 11.5 26.5t27.5 10.5h164q18 84 59 158.5t99.5 133t133 99.5t158.5 59v164q0 39 39 39h154q16 0 26.5 -11.5t10.5 -27.5v-164q84 -18 158.5 -59t133 -99.5t99.5 -133 t59 -158.5h164v0z" />
<glyph unicode="&#xf05c;" horiz-adv-x="1597" d="M1135 991q29 -29 0 -57l-166 -166l166 -166q29 -29 0 -57l-113 -113q-12 -12 -28.5 -12t-28.5 12l-166 166l-166 -166q-12 -12 -28.5 -12t-29.5 12l-112 113q-12 12 -12 28.5t12 28.5l166 166l-166 166q-12 12 -12 28.5t12 28.5l112 113q29 29 58 0l166 -166l166 166 q29 29 57 0l113 -113v0zM799 209q117 0 218 44t177 120t120 177t44 218t-44 218t-120 177t-177.5 120t-217.5 44q-117 0 -218.5 -44t-177 -120t-119.5 -177t-44 -218t44 -218t119.5 -177t177 -120t218.5 -44zM799 1567q166 0 311 -62.5t254 -171t171 -254t62 -311.5 t-62 -311.5t-171 -254t-254 -171t-311 -62.5t-311.5 62.5t-254 171t-171 254t-62.5 311.5t62.5 311.5t171 254t254 171t311.5 62.5z" />
<glyph unicode="&#xf05d;" horiz-adv-x="1597" d="M1085 1020q10 10 27.5 10t28.5 -10l114 -115q10 -10 10.5 -27.5t-10.5 -27.5l-409 -410q-12 -12 -32.5 -20t-37.5 -8h-114q-16 0 -37 8t-33 20l-250 250q-10 10 -10 27.5t10 27.5l115 115q10 10 27.5 10t27.5 -10l178 -180q29 -25 58 0l337 340v0zM799 209q117 0 218 44 t177 120t120 177t44 218t-44 218t-120 177t-177.5 120t-217.5 44q-117 0 -218.5 -44t-177 -120t-119.5 -177t-44 -218t44 -218t119.5 -177t177 -120t218.5 -44zM799 1567q166 0 311 -62.5t254 -171t171 -254t62 -311.5t-62 -311.5t-171 -254t-254 -171t-311 -62.5 t-311.5 62.5t-254 171t-171 254t-62.5 311.5t62.5 311.5t171 254t254 171t311.5 62.5z" />
<glyph unicode="&#xf05e;" horiz-adv-x="1597" d="M799 209q117 0 218 44t177 120t120 177t44 218q0 84 -23.5 160t-64.5 141l-772 -772q66 -41 141.5 -64.5t159.5 -23.5zM799 1327q-117 0 -218.5 -44t-177 -120t-119.5 -177t-44 -218q0 -84 23.5 -160t66.5 -141l770 770q-66 43 -141.5 66.5t-159.5 23.5zM799 1567 q166 0 311 -62.5t254 -171t171 -254t62 -311.5t-62 -311.5t-171 -254t-254 -171t-311 -62.5t-311.5 62.5t-254 171t-171 254t-62.5 311.5t62.5 311.5t171 254t254 171t311.5 62.5z" />
<glyph unicode="&#xf060;" horiz-adv-x="1536" d="M29 700q-29 29 -29 68t29 68l671 673q29 29 68 29t68 -29l100 -100q29 -29 29 -67.5t-29 -67.5l-338 -338h842q41 0 68.5 -27.5t27.5 -68.5v-144q0 -39 -27.5 -66.5t-66.5 -27.5h-844l338 -338q29 -29 29 -67.5t-29 -67.5l-100 -100q-29 -29 -68 -29t-68 29l-671 671v0z " />
<glyph unicode="&#xf061;" horiz-adv-x="1536" d="M1507 836q29 -29 29 -67t-29 -67l-671 -673q-29 -29 -68 -29t-68 29l-100 100q-29 29 -29 68t29 67l338 338h-844q-39 0 -66.5 27.5t-27.5 68.5v144q0 39 27.5 66.5t66.5 27.5h844l-338 338q-29 29 -29 67.5t29 67.5l100 100q29 29 68 29t68 -29l671 -673v0z" />
<glyph unicode="&#xf062;" horiz-adv-x="1536" d="M700 1507q29 29 68 29t68 -29l671 -671q29 -29 29 -68t-29 -68l-100 -100q-29 -29 -66.5 -29t-66.5 29l-340 338v-844q0 -39 -27.5 -66.5t-66.5 -27.5h-144q-41 0 -67.5 27.5t-26.5 66.5v844l-338 -338q-29 -29 -67.5 -29t-67.5 29l-100 100q-29 29 -30 68t28 68l673 671 v0z" />
<glyph unicode="&#xf063;" horiz-adv-x="1536" d="M836 27q-29 -29 -68 -29t-68 29l-671 671q-29 29 -29 68t29 68l100 100q29 29 68 29t67 -29l338 -338v844q0 39 27.5 66.5t66.5 27.5h144q41 0 67.5 -27.5t26.5 -66.5v-844l340 338q29 29 66.5 29t66.5 -29l102 -100q29 -29 29 -68t-29 -68l-673 -671v0z" />
<glyph unicode="&#xf064;" d="M1808 1004q35 -33 35 -82q0 -47 -35 -82l-491 -494q-51 -51 -88 -35.5t-37 86.5v330q-262 -2 -461 -56.5t-336 -147.5t-215 -219t-98 -271q-4 -33 -37 -33h-2q-33 0 -37 33q-6 51 -6 102q0 209 71.5 393.5t218 322.5t371 219t531.5 83v293q0 72 36 87t89 -36l491 -493v0z " />
<glyph unicode="&#xf065;" horiz-adv-x="1536" d="M1536 928q0 -53 -26.5 -64.5t-65.5 25.5l-166 166l-274 -273q-12 -14 -31 -14t-33 14l-160 158q-12 14 -12 32.5t12 31.5l275 274l-166 166q-39 39 -27 65.5t66 26.5h520q37 0 61 -25q27 -27 27 -61v-522zM756 596q12 -14 12 -32.5t-12 -31.5l-275 -274l166 -166 q39 -39 27 -65.5t-66 -26.5h-520q-37 0 -61 25q-27 27 -27 61v522q0 53 26.5 64.5t65.5 -25.5l166 -166l274 275q12 12 31 12t33 -12z" />
<glyph unicode="&#xf066;" horiz-adv-x="1536" d="M1524 1362q12 -12 12 -30.5t-12 -33.5l-275 -272l166 -166q39 -39 27 -65.5t-66 -26.5h-520q-41 0 -61 25q-27 27 -27 61v522q0 53 26.5 64.5t65.5 -27.5l166 -166l274 275q12 14 31 14t33 -14l160 -160v0zM741 741q27 -27 27 -61v-522q0 -53 -26.5 -64.5t-65.5 27.5 l-166 166l-274 -275q-12 -14 -31 -14t-33 14l-160 160q-12 12 -12 30.5t12 33.5l275 272l-166 166q-39 39 -27 65.5t66 26.5h520q38 0 61 -25z" />
<glyph unicode="&#xf067;" horiz-adv-x="1536" d="M1442 934q39 0 66.5 -27.5t27.5 -66.5v-144q0 -39 -27.5 -66.5t-66.5 -27.5h-508v-506q0 -41 -27.5 -68.5t-66.5 -27.5h-144q-39 0 -66.5 27.5t-27.5 66.5v508h-506q-41 0 -68.5 26.5t-27.5 67.5v144q0 39 27.5 66.5t66.5 27.5h508v506q0 41 26.5 68.5t67.5 27.5h144 q39 0 66.5 -27.5t27.5 -66.5v-508h508v0z" />
<glyph unicode="&#xf068;" horiz-adv-x="1536" d="M1442 934q39 0 66.5 -27.5t27.5 -66.5v-144q0 -39 -27.5 -66.5t-66.5 -27.5h-1346q-41 0 -68.5 26.5t-27.5 67.5v144q0 39 27.5 66.5t66.5 27.5h1348v0z" />
<glyph unicode="&#xf069;" horiz-adv-x="1427" d="M1380 575q35 -20 44.5 -57t-9.5 -72l-72 -124q-20 -35 -58 -44.5t-73 9.5l-331 192v-383q0 -41 -28 -68.5t-69 -27.5h-141q-41 0 -68.5 27.5t-27.5 66.5v385l-332 -192q-35 -20 -73 -10t-58 45l-72 124q-18 35 -9 72t44 57l334 193l-334 193q-35 20 -45 57t10 72l72 124 q20 35 58 44.5t73 -9.5l332 -192v383q0 41 27.5 68.5t68.5 27.5h141q41 0 69 -27.5t28 -66.5v-385l331 192q35 18 73 9t58 -44l70 -124q20 -35 11 -72t-44 -57l-333 -193l333 -193v0z" />
<glyph unicode="&#xf06a;" horiz-adv-x="1597" d="M926 1274q0 10 -8 22q-8 8 -23 9h-193q-14 0 -22 -9q-8 -12 -8 -22l14 -739q4 -29 31 -29h162q12 0 21 8t9 21zM920 410q0 12 -9.5 21t-21.5 9h-180q-12 0 -20.5 -9t-8.5 -21v-174q0 -12 8 -21.5t21 -9.5h180q12 0 21.5 9t9.5 22v174zM799 1567q166 0 311 -62.5t254 -171 t171 -254t62 -311.5t-62 -311.5t-171 -254t-254 -171t-311 -62.5t-311.5 62.5t-254 171t-171 254t-62.5 311.5t62.5 311.5t171 254t254 171t311.5 62.5z" />
<glyph unicode="&#xf06b;" horiz-adv-x="1880" d="M1137 1018h-394v-797q0 -33 24 -56.5t56 -23.5h234q33 0 56.5 23.5t23.5 56.5v797zM461 1292q0 -49 33.5 -82.5t83.5 -33.5h237l-151 196q-10 10 -32 24.5t-54 14.5q-49 0 -83 -35t-34 -84zM1065 1176h238q49 0 82.5 33.5t33.5 82.5t-33.5 84t-82.5 35q-33 0 -54.5 -14.5 t-31.5 -24.5zM1841 1018q16 0 27.5 -11.5t11.5 -27.5v-391q0 -16 -11 -27.5t-28 -11.5h-117v-432q0 -47 -34.5 -82t-83.5 -35h-1332q-49 0 -82.5 35t-33.5 82v432h-119q-16 0 -27.5 11t-11.5 28v391q0 16 11.5 27.5t27.5 11.5h539q-57 0 -107.5 21.5t-87.5 58.5t-58.5 87 t-21.5 107t21.5 107.5t58.5 87.5t87 58.5t108 21.5q61 0 115.5 -24.5t88.5 -69.5l158 -203l158 203q35 45 89 69.5t116 24.5q57 0 107 -21.5t87 -58.5t58.5 -87t21.5 -108q0 -57 -21.5 -107t-58.5 -87t-87 -58.5t-107 -21.5h538v0z" />
<glyph unicode="&#xf06c;" horiz-adv-x="1916" d="M1370 829q33 -4 57.5 19.5t26.5 56.5q2 35 -20.5 58.5t-57.5 25.5q-147 6 -277 -16.5t-247 -73.5t-223.5 -133t-206.5 -199q-23 -27 -21 -59.5t29 -54.5q20 -18 51 -19q37 0 62 27q90 102 181 175t191.5 117t212 62t242.5 14zM1829 1524q66 -133 83 -281.5t-18 -322.5 q-90 -487 -579 -740q-231 -123 -467 -123q-154 0 -307 54q-23 8 -45.5 20t-44.5 25q-29 16 -57.5 30.5t-49.5 14.5q-10 -2 -23.5 -17.5t-27.5 -35t-26.5 -41t-20.5 -33.5q-14 -23 -26.5 -41.5t-22.5 -32.5q-25 -31 -64 -31h-4q-29 2 -49.5 12.5t-33.5 24.5t-20.5 28.5 t-9.5 22.5q-27 37 -10 78q20 53 56 89t71 65q29 23 50.5 43t27.5 43q2 6 0 12t-10 25q-6 12 -11.5 27.5t-9.5 35.5q-25 160 13 295t120 242.5t195 185.5t235 121q82 29 179.5 34t203.5 7q61 0 127 2t127.5 11t113.5 28.5t85 54.5q20 20 38.5 41t38 36t43 24.5t58.5 9.5 q23 0 42.5 -11.5t29.5 -31.5z" />
<glyph unicode="&#xf06d;" horiz-adv-x="1445" d="M1210 934q111 -106 173.5 -237.5t62.5 -254.5q0 -109 -51.5 -195.5t-145.5 -148t-228 -95.5t-298 -34t-298 34t-228.5 95.5t-145.5 148.5t-51 195q0 123 63.5 254t174.5 238q10 16 33.5 13t31.5 -21q4 -16 0 -29q-8 -35 -14 -84t-4 -101.5t13 -101.5t38 -84 q31 -37 78 -49q-49 154 -40 293t49 259t101.5 217t118.5 167t98 106.5t43 39.5q25 18 47 0q10 -8 13.5 -21.5t-0.5 -24.5q0 -2 -15.5 -42.5t-21.5 -102t7 -134.5t71 -136q37 -43 67.5 -85t52 -93.5t34 -120t12.5 -162.5q0 -33 -31 -39q-12 -2 -24.5 4t-16.5 19 q-14 31 -42 49t-63 18q-47 0 -79.5 -33.5t-32.5 -81.5q0 -121 156 -120q98 0 153 63q37 43 53.5 101.5t20.5 114.5t2 102.5t-4 62.5q-6 12 0 29q8 18 31.5 21t35.5 -13z" />
<glyph unicode="&#xf06e;" d="M922 262q119 0 228.5 33t207.5 92t182 145t150 191q-80 129 -187.5 226.5t-236.5 156.5q51 -59 79.5 -133t28.5 -160q0 -96 -35.5 -179t-99 -146.5t-147.5 -99.5t-179 -36q-96 0 -179 36t-146.5 99.5t-99 146.5t-35.5 179q0 78 25.5 148.5t68.5 128.5 q-117 -59 -217.5 -152.5t-175.5 -214.5q66 -104 149.5 -190.5t182 -145.5t208 -92t228.5 -33zM913 1112q-61 0 -116.5 -23.5t-95 -63.5t-63.5 -95.5t-24 -116.5q0 -23 16.5 -40t41.5 -17t41 17.5t16 39.5q0 78 53.5 131t130.5 53q25 0 41.5 17.5t16.5 40.5q0 25 -16.5 41 t-41.5 16zM1821 805q23 -39 22.5 -83t-22.5 -81q-80 -127 -180.5 -226.5t-215 -167t-241.5 -103t-262 -35.5q-133 0 -260 35.5t-243 104t-216.5 168t-177.5 224.5q-25 37 -25 81t25 83q78 125 178 224t216 168t242.5 104.5t260.5 35.5q135 0 262 -35.5t241.5 -103.5 t215 -167t180.5 -226z" />
<glyph unicode="&#xf070;" d="M614 858q0 -23 16.5 -40t41.5 -17t41 17.5t16 39.5q0 78 53.5 131t130.5 53q25 0 41.5 17.5t16.5 40.5q0 25 -16.5 41t-41.5 16q-61 0 -116.5 -23.5t-95 -63.5t-63.5 -95.5t-24 -116.5zM643 485q-86 63 -138 159.5t-52 213.5q0 78 25.5 148.5t68.5 130.5 q-117 -61 -217.5 -153.5t-175.5 -215.5q82 -131 191.5 -229.5t240.5 -157.5zM647 20q-6 -14 -22 -18q-4 -2 -11 -2q-6 0 -18 4l-135 76q-14 8 -18.5 23.5t3.5 29.5l66 115q-145 68 -269 178.5t-218 259.5q-25 37 -25 81t25 83q78 125 178 224.5t216 168t242.5 104 t260.5 35.5q53 0 105 -7t103 -17l89 158q8 14 24 18q12 6 29 -2l133 -76q14 -8 19.5 -23.5t-3.5 -29.5zM1821 850q23 -39 22.5 -83t-22.5 -81q-160 -254 -392.5 -392t-500.5 -140l88 159q209 25 382 145t292 310q-109 170 -263 283l76 137q92 -66 172 -150t146 -188z M1374 858q0 -74 -21.5 -140.5t-60.5 -121.5t-93 -98t-118 -68l285 510q4 -20 6 -39.5t2 -42.5z" />
<glyph unicode="&#xf071;" horiz-adv-x="1775" d="M956 446q14 0 24.5 10.5t10.5 24.5l15 633q0 14 -10.5 24.5t-24.5 10.5h-166q-16 0 -25.5 -10.5t-9.5 -24.5l12 -633q0 -14 10.5 -24.5t24.5 -10.5h139v0zM999 315q0 16 -9 26.5t-25 10.5h-154q-14 0 -24.5 -10t-10.5 -27v-147q0 -16 10.5 -25.5t24.5 -9.5h154 q35 0 34 35v147zM887 1567q33 0 56.5 -21.5t39.5 -48.5l770 -1331q10 -16 16.5 -34.5t6.5 -39.5q0 -49 -38 -70.5t-81 -21.5h-1538q-43 0 -81 21.5t-38 70.5q0 20 6 39t17 35l768 1331q16 27 39.5 48.5t56.5 21.5z" />
<glyph unicode="&#xf072;" horiz-adv-x="1597" d="M1589 139q6 -12 6 -26q0 -33 -24 -58l-58 -57q-23 -25 -57 -25h-4q-35 4 -59 31l-455 586q-82 -72 -153.5 -126t-135.5 -93l35 -281v-10q0 -33 -22 -55l-31 -31q-23 -23 -58 -23h-4q-39 4 -59 31l-205 272l-274 207q-29 25 -31 60v4q0 31 23 57l30 29q20 25 56 24 q8 0 10 -2l280 -32q39 63 93.5 134.5t125.5 151.5l-583 457q-31 25 -31 59v4q0 31 23 58l57 57q27 23 57 23h13.5t13.5 -4l803 -293l151 149q70 70 161 110t167 40q72 0 109 -37q20 -18 28 -46t8 -63q0 -76 -38.5 -167t-110.5 -160l-150 -152z" />
<glyph unicode="&#xf073;" horiz-adv-x="1566" d="M1409 989h-283v-252h283v252zM1409 698h-283v-252h283v252zM1409 408h-283v-250h283v250zM1087 989h-284v-252h284v252zM1087 698h-284v-252h284v252zM1087 408h-284v-250h284v250zM709 1165q0 -31 16 -44t57 -13t58.5 13.5t17.5 43.5v228q0 29 -17.5 43t-58.5 14 t-57 -14.5t-16 -42.5v-228v0zM764 989h-285v-252h285v252zM764 698h-285v-252h285v252zM764 408h-285v-250h285v250zM440 989h-282v-252h282v252zM440 698h-282v-252h282v252zM440 408h-282v-250h282v250zM272 1165q0 -57 76 -57t76 57v228q0 57 -76 57t-76 -57v-228z M1143 1165q0 -57 76 -57t75 57v228q0 57 -75 57q-76 0 -76 -57v-228zM1450 1380q47 0 82 -34.5t35 -81.5v-1147q0 -47 -35 -82t-82 -35h-1333q-47 0 -82 35t-35 82v1147q0 47 35 81.5t82 34.5h39v13q0 31 10 62.5t32.5 56t59.5 40t90 15.5t90 -15.5t59.5 -40t33 -56.5 t10.5 -62v-13h49v13q0 31 10 62.5t32.5 56t59.5 40t90 15.5t90 -15.5t60.5 -40t34 -56.5t10.5 -62v-13h49v13q0 31 10.5 62.5t33 56t59 40t90.5 15.5q53 0 90 -15.5t59.5 -40t32.5 -56.5t10 -62v-13h39v0z" />
<glyph unicode="&#xf074;" d="M39 1071q-16 0 -27.5 10.5t-11.5 26.5v154q0 39 39 38h219q68 0 127 -20t111.5 -56t97.5 -84t88 -104q-61 -90 -117 -178q-4 -8 -9 -14t-9 -15q-70 102 -139.5 172t-149.5 70h-219v0zM1821 391q23 -18 22 -47q0 -27 -22 -45l-334 -279q-35 -29 -59.5 -20.5t-24.5 49.5 v168h-203q-68 0 -127 20.5t-110.5 56.5t-97.5 84t-87 103q29 41 56.5 85t56.5 87q4 10 10 17.5t10 17.5q70 -102 139.5 -170.5t149.5 -68.5h203v190q0 41 24.5 49t59.5 -20zM1200 1069q-53 0 -100 -31.5t-93 -84t-91.5 -120t-90.5 -139.5q-55 -88 -113.5 -174t-126 -154.5 t-148.5 -110.5t-179 -42h-219q-16 0 -27.5 11.5t-11.5 27.5v154q0 16 11.5 27t27.5 11h219q51 0 99.5 31t93.5 83t90 119.5t90 139.5q55 88 114.5 175t127 156t147.5 110.5t180 41.5h203v185q0 41 24.5 49t59.5 -21l334 -278q23 -18 22 -45q0 -29 -22 -47l-334 -277 q-35 -29 -59.5 -20.5t-24.5 49.5v174h-203v0z" />
<glyph unicode="&#xf075;" horiz-adv-x="1916" d="M958 1567q199 0 373 -55.5t304 -150.5t206 -222t76 -273q0 -145 -76 -272t-206 -222.5t-304 -150.5t-373 -55q-92 0 -180 12q-176 -139 -411 -192q-25 -4 -50.5 -8.5t-54.5 -8.5q-16 -2 -27.5 6.5t-15.5 24.5t5 26.5t20 20.5q23 23 43 44.5t36.5 51t30 69.5t23.5 97 q-174 98 -275.5 241.5t-101.5 315.5q0 145 76 272.5t206 222.5t303.5 150.5t372.5 55.5z" />
<glyph unicode="&#xf076;" horiz-adv-x="1566" d="M39 1067q-16 0 -27.5 11.5t-11.5 27.5v391q0 16 11.5 27.5t27.5 11.5h391q16 0 28.5 -11.5t12.5 -27.5v-391q0 -16 -12.5 -27.5t-28.5 -11.5h-391v0zM1528 1536q16 0 27.5 -11.5t11.5 -27.5v-391q0 -16 -11.5 -27.5t-27.5 -11.5h-391q-39 0 -39 39v391q0 16 11 27.5 t28 11.5h391v0zM1528 948q16 0 27.5 -11t11.5 -28v-288q0 -135 -61.5 -254t-168 -207t-249 -139.5t-304.5 -51.5q-164 0 -306 51.5t-248.5 139.5t-168 206.5t-61.5 254.5v288q0 16 11.5 27.5t27.5 11.5h391q16 0 28.5 -11t12.5 -28v-288q0 -29 22.5 -60t63.5 -58.5t98.5 -45 t128.5 -17.5q70 0 128.5 17.5t99.5 45t63.5 58.5t22.5 60v288q0 39 39 39h391v0z" />
<glyph unicode="&#xf077;" horiz-adv-x="1536" d="M700 1096q29 29 68 28.5t68 -28.5l671 -674q29 -29 29 -67t-29 -66l-100 -103q-29 -29 -68 -28.5t-67 28.5l-508 510l-500 -510q-29 -29 -67.5 -28.5t-67.5 28.5l-100 103q-29 29 -30 66.5t28 66.5l673 674v0z" />
<glyph unicode="&#xf078;" horiz-adv-x="1536" d="M836 178q-29 -29 -68 -28.5t-68 28.5l-671 674q-29 29 -29 66.5t29 66.5l100 102q29 29 68 29t67 -29l508 -509l500 509q29 29 67.5 29t67.5 -29l100 -102q29 -29 30 -66.5t-28 -66.5l-673 -674v0z" />
<glyph unicode="&#xf079;" horiz-adv-x="1916" d="M813 328q6 -10 12 -19.5t17 -19.5l252 -281h-695q-33 0 -56.5 23.5t-23.5 56.5v920h-249q-55 0 -67.5 30.5t28.5 75.5l385 424q25 29 63 29q39 0 64 -29l385 -424q41 -45 28.5 -75.5t-67.5 -30.5h-250v-680h174v0zM1847 528q55 0 67.5 -30.5t-28.5 -75.5l-385 -424 q-25 -29 -63 -29q-39 0 -64 29l-385 424q-41 45 -28.5 75.5t67.5 30.5h250v678h-174q-6 10 -12.5 20.5t-14.5 20.5l-254 279h695q33 0 56 -22.5t23 -57.5v-918h250v0z" />
<glyph unicode="&#xf07a;" d="M1825 1286q23 -27 16 -59l-108 -578q-6 -25 -26.5 -42t-49.5 -17h-1084l35 -168q4 -16 17.5 -26.5t29.5 -10.5h856q16 0 27.5 -11.5t11.5 -27.5v-78q0 -16 -11 -26.5t-28 -10.5h-163h-652h-104q-16 0 -36.5 3.5t-35.5 9.5q-6 2 -14 13t-15.5 24.5t-12.5 27t-7 21.5 l-215 1016q-4 16 -17.5 26t-29.5 10h-170q-39 0 -39 39v76q0 39 39 39h231q16 0 38 -4t36 -8q6 -4 14.5 -14.5t15.5 -23.5t12 -26.5t7 -21.5l27 -125h1347q35 0 58 -27zM1233 115q0 47 33.5 81.5t81.5 34.5q47 0 80.5 -34.5t33.5 -81.5t-33.5 -81t-80.5 -34t-81 34t-34 81z M582 115q0 47 33.5 81.5t80.5 34.5q49 0 83 -34.5t34 -81.5t-34 -81t-83 -34q-47 0 -80.5 34t-33.5 81z" />
<glyph unicode="&#xf07b;" d="M1729 1307q47 0 80.5 -35t33.5 -82v-1075q0 -47 -33.5 -81t-80.5 -34h-1614q-47 0 -81 34t-34 81v1306q0 47 34 81t81 34h692q47 0 81 -34t34 -81t33.5 -80.5t80.5 -33.5h693z" />
<glyph unicode="&#xf07c;" d="M1843 815l-260 -758q-6 -23 -30.5 -40t-47.5 -17h-1462l246 760q6 23 30.5 39t47.5 16h1476zM365 969q-37 0 -72 -12.5t-65.5 -34t-53 -51t-35.5 -64.5l-139 -428v1042q0 47 34 81t81 34h692q47 0 81 -34t34 -81t33.5 -80.5t80.5 -33.5h443q47 0 80.5 -35t33.5 -82v-221 h-1228v0z" />
<glyph unicode="&#xf07d;" horiz-adv-x="798" d="M739 391q47 0 57.5 -22.5t-24.5 -57.5l-319 -319q-23 -23 -54 -23t-53 23l-321 319q-33 35 -23 57.5t57 22.5h203v754h-203q-47 0 -57 22.5t25 57.5l319 319q23 23 53 23q31 0 54 -23l321 -319q33 -35 22.5 -57.5t-57.5 -22.5h-202v-754h202v0z" />
<glyph unicode="&#xf07e;" horiz-adv-x="1597" d="M422 389q0 -47 -22.5 -57t-57.5 24l-319 320q-23 23 -23 53q0 31 23 53l319 322q35 33 57.5 23.5t22.5 -56.5v-205h754v203q0 47 22.5 57.5t56.5 -22.5l320 -322q23 -23 22 -53q0 -31 -22 -53l-320 -322q-35 -33 -57 -22.5t-22 57.5v203h-754v-203v0z" />
<glyph unicode="&#xf080;" d="M1536 264h-203v922h203v-922zM1196 264h-203v592h203v-592zM850 264h-201v776h201v-776zM510 264h-203v363h203v-363zM1690 1382h-1536v-1228h1536v1228zM1729 1536q47 0 80.5 -34t33.5 -81v-1306q0 -47 -33.5 -81t-80.5 -34h-1612q-47 0 -82 34t-35 81v1306q0 47 35 81 t82 34h1612v0z" />
<glyph unicode="&#xf081;" horiz-adv-x="1536" d="M1333 745q14 14 4 33q-8 18 -30 15h-4q23 23 30 45q8 20 -8 32q-14 14 -33 2q-8 -4 -29.5 -10t-45.5 -6q-4 0 -7.5 1t-7.5 1q0 2 -1 4t-1 4q-16 61 -57 110.5t-94 72.5q4 4 6 8t6 8q6 16 0 33q-2 6 -12.5 16t-34.5 8q-2 4 -6 8q-12 12 -25 9q-25 -4 -49 -13l-2 2 q-14 8 -31 -2q-59 -37 -98 -100t-68 -135q-35 31 -57 41q-61 35 -129 63.5t-154 61.5q-14 4 -24 -4q-10 -6 -15 -21q-2 -27 8.5 -58.5t38.5 -62.5q-25 -6 -20 -32q12 -68 68 -101l-13 -12q-14 -14 -4 -33q4 -12 26.5 -37.5t65.5 -38.5q-6 -12 -6 -22t2 -14q6 -33 39 -50 q-37 -25 -79 -34t-85 -5.5t-83 20.5t-70 46q-8 8 -19.5 8t-19.5 -8q-23 -18 -4 -39q80 -111 198.5 -169t259.5 -58q96 0 184.5 26.5t160 73.5t124 112.5t76.5 143.5q82 6 129 57zM1343 1536q80 0 136.5 -56.5t56.5 -136.5v-1150q0 -41 -15.5 -76t-41 -60.5t-61.5 -41 t-75 -15.5h-1153q-39 0 -73.5 15.5t-60 41t-41 60.5t-15.5 76v1150q0 39 15.5 75t41 61.5t60.5 41t73 15.5h1153v0z" />
<glyph unicode="&#xf082;" horiz-adv-x="1536" d="M1346 1536q80 0 136 -56.5t56 -136.5v-1150q0 -41 -15.5 -76t-41 -60.5t-61.5 -41t-74 -15.5h-486v643h172q12 0 21.5 8t9.5 21l12 168q0 14 -8 24q-10 10 -23 10h-184v74q0 41 10.5 54.5t53.5 13.5q25 0 55.5 -4t58.5 -11q6 0 13.5 1.5t11.5 5.5q10 6 14 22l23 162 q4 29 -25 35q-90 25 -188 24q-301 0 -301 -293v-84h-103q-33 0 -32 -32v-168q0 -12 9 -21.5t23 -9.5h103v-643h-393q-39 0 -74 15.5t-60.5 41t-41 60.5t-15.5 76v1150q0 39 15.5 75t41 61.5t60.5 41t74 15.5h1153v0z" />
<glyph unicode="&#xf083;" d="M1690 1376h-957l-14 -92h-565v-139h1536v231zM557 709q0 -76 28.5 -142.5t78 -116t116 -78t142.5 -28.5t142 28.5t115.5 78t78 116t28.5 142.5t-28.5 142.5t-78 115.5t-116 77.5t-141.5 28.5q-76 0 -142.5 -28.5t-116 -77.5t-78 -115.5t-28.5 -142.5zM1690 274h-1536 v-114h1536v114zM266 1341h316v93h-316v-93zM1729 1536q47 0 80.5 -34t33.5 -81v-1306q0 -47 -33.5 -81t-80.5 -34h-1614q-47 0 -81 34t-34 81v1306q0 47 34 81t81 34h1614v0zM827 709q0 41 28 67.5t67 26.5v2q18 0 30.5 12t12.5 29q0 18 -12.5 30.5t-30.5 12.5 q-74 0 -126.5 -53.5t-52.5 -126.5q0 -16 12.5 -28.5t28.5 -12.5q18 0 30.5 12.5t12.5 28.5zM1171 709q0 -51 -19 -97.5t-53 -80t-80 -53t-97 -19.5t-97.5 19.5t-80 53t-53 79.5t-19.5 98q0 51 19.5 97t53 80t79.5 53t98 19q51 0 97 -19t80 -53t53 -80t19 -97z" />
<glyph unicode="&#xf084;" horiz-adv-x="1916" d="M850 991q27 37 36 79t2 84t-29.5 79t-59.5 63q-37 27 -79 36t-84 2t-79 -29.5t-63 -59.5q-37 -53 -39 -114.5t26 -114.5q-59 10 -116.5 -12.5t-96.5 -75.5q-27 -37 -36 -79t-1.5 -83t30 -78t58.5 -63q37 -27 79 -36t83 -2t78 29.5t64 59.5q39 53 41 114.5t-27 114.5 q59 -10 116.5 11.5t96.5 74.5zM1698 518l-101 -139l248 -178q43 -31 52.5 -83t-21.5 -95q-33 -43 -84 -51.5t-94 22.5l-803 573q-78 -80 -170 -130t-186.5 -68.5t-185.5 -2t-167 71.5q-86 61 -133 157.5t-53 208t30 230.5t113 228q78 109 179.5 180t209 102t213 17.5 t191.5 -74.5q76 -53 121 -134t59 -176.5t-4 -199t-68 -203.5l414 -297l101 139l-105 74q-14 10 -17 27.5t7 32.5l51 69q10 14 26.5 17.5t32.5 -7.5l344 -247q16 -10 18.5 -27.5t-7.5 -32.5l-49 -69q-10 -14 -27.5 -17.5t-32.5 6.5z" />
<glyph unicode="&#xf085;" horiz-adv-x="1916" d="M1446 1206q0 -47 31.5 -78.5t76.5 -31.5q47 0 79 31.5t32 76.5q0 47 -31.5 79t-77.5 32q-47 0 -78.5 -32t-31.5 -77zM1790 1051q2 -4 8 -16.5t13.5 -27t12.5 -26.5t5 -14q0 -6 -22.5 -23.5t-50 -36t-51.5 -33t-26 -14.5q-4 0 -14 9.5t-21.5 21.5t-20.5 23.5t-13 15.5 q-14 -4 -28.5 -6t-29.5 0h-14q-4 -4 -12 -16.5t-17.5 -26t-18.5 -23.5t-13 -10t-30 11t-54.5 25.5t-52 29t-23.5 20.5q0 2 3 14.5t8 26.5t9 27.5t6 17.5q-23 23 -38 59q-53 2 -75 5t-29 18.5t-5 52.5t-4 109q0 6 12.5 12t29.5 10t33.5 6t22.5 4q10 33 31 64q-2 4 -8 17.5 t-12.5 27.5t-11.5 25.5t-5 15.5q0 6 21.5 22.5t49 35t51.5 32.5t28 14t13 -9t20.5 -21.5t20.5 -23.5t13 -15q14 4 28.5 6t29.5 0h14q2 4 11 16.5t18.5 25.5t17.5 23.5t12 10.5t30 -11.5t55.5 -26t53 -28.5t23.5 -20q0 -4 -4 -15.5t-8 -26t-8.5 -27.5t-6.5 -17q20 -25 39 -60 q51 -4 74 -7t29 -18.5t5 -52t3 -106.5q0 -6 -12.5 -12.5t-28.5 -10.5t-32.5 -6t-22.5 -4q-13 -36 -31 -63zM1397 367q0 -49 34.5 -85t84.5 -36q49 0 84.5 34.5t35.5 86.5q0 49 -34.5 83.5t-85.5 34.5q-49 0 -84 -34.5t-35 -83.5zM1796 238q2 -6 11.5 -18.5t18.5 -27 t16 -27.5t7 -18q0 -4 -18.5 -23.5t-43 -41t-47 -40.5t-28.5 -26l-8 -4q-4 0 -16.5 8.5t-25.5 19.5t-25.5 21.5t-16.5 14.5q-37 -12 -78 -19q-2 -6 -9 -21.5t-15.5 -30.5t-16.5 -27.5t-14 -12.5t-35 7.5t-62.5 18.5t-60 23.5t-26.5 22.5q0 23 5 47.5t9 46.5 q-16 12 -28.5 26.5t-22.5 30.5q-23 -2 -45.5 -3t-44.5 -1h-14.5t-8.5 11q-2 8 -8 35.5t-13.5 58t-12.5 55.5t-5 29q0 6 13.5 13t31 14.5t33.5 12.5t22 7q4 23 9.5 39t15.5 37q-4 4 -13 17t-18.5 27.5t-16.5 28t-7 17.5t18.5 23.5t43 41t47 40t28.5 24.5l8 4q4 0 16.5 -8.5 t25.5 -19.5t25.5 -21.5t16.5 -14.5q35 12 76 19q2 6 9 21.5t16.5 30.5t17.5 27.5t14 12.5q4 0 34 -7t63.5 -18.5t60.5 -23.5t27 -23q0 -23 -5.5 -47t-9.5 -47q16 -12 28.5 -26.5t22.5 -30.5q25 2 49.5 3t47.5 1q8 0 18 -26.5t17.5 -60.5t12.5 -64.5t5 -39.5q0 -6 -13.5 -13 t-29.5 -13t-32.5 -12.5t-22.5 -8.5q-9 -38 -23 -71zM602 709q37 0 70 14t57.5 38.5t38.5 57.5t14 70t-14 70.5t-38.5 58t-57.5 39t-70 14.5q-76 0 -129 -53t-53 -129q0 -37 14.5 -70t39 -57.5t58 -38.5t70.5 -14zM1036 1016q10 -2 37 -5t55.5 -8.5t51 -11.5t22.5 -14v-178 q0 -10 -22.5 -16.5t-51 -11.5t-56.5 -7t-36 -4q-14 -43 -37 -88q23 -31 44.5 -60.5t48.5 -58.5l2 -10q0 -6 -20.5 -30t-47.5 -50.5t-50.5 -47t-29.5 -20.5q-2 0 -20.5 13.5t-41 31t-42 32.5t-25.5 20q-45 -23 -88 -37q0 -10 -3 -37t-8 -56.5t-12.5 -52t-15.5 -22.5h-178 q-8 0 -15.5 22.5t-11.5 52t-7 56t-3 37.5q-45 12 -88 37q-31 -23 -61.5 -46.5t-59.5 -48.5l-10 -2q-4 0 -27.5 20.5t-49 47t-46 50.5t-20.5 30q0 2 13 20.5t29.5 40t31 41t18.5 25.5q-23 43 -39 94q-10 2 -37 5t-55.5 7t-51 10.5t-22.5 14.5v180q0 8 22.5 15.5t52 11.5 t56.5 7t37 3q12 49 37 88q-23 31 -45.5 61.5t-46.5 59.5l-4 10q0 6 20.5 29.5t47 50t50 47t29.5 20.5q2 0 20.5 -13t41 -30.5t43 -34t24.5 -20.5q43 25 90 37q0 8 3 37t7 57.5t10.5 52t16.5 23.5h178q8 0 15.5 -23.5t11.5 -52t7 -57.5t5 -37q45 -12 86 -35q31 23 62.5 45.5 t60.5 46.5l8 4q4 0 27.5 -21.5t49.5 -47t47.5 -49t21.5 -29.5q0 -4 -13.5 -22.5t-30 -40t-32 -41t-19.5 -25.5q23 -39 39 -92z" />
<glyph unicode="&#xf086;" horiz-adv-x="1916" d="M1556 997q0 -117 -61 -221t-166.5 -181t-247 -122t-303.5 -45q-37 0 -73.5 3t-71.5 7q-147 -113 -336 -155q-20 -4 -40.5 -7.5t-43.5 -7.5q-12 -2 -21.5 6.5t-13.5 18.5v2q-4 12 3 19.5t18 17.5q18 18 34.5 36.5t29.5 42t24.5 55.5t19.5 79q-141 78 -224 195.5t-83 256.5 q0 119 61.5 222.5t167 180.5t246.5 122t303 45t303.5 -45t247 -122t166.5 -180.5t61 -222.5zM1917 698q0 -139 -83 -256.5t-224 -195.5q8 -47 19 -79t25.5 -55.5t30 -42t33.5 -36.5q10 -10 17.5 -18.5t3.5 -18.5v-2q-2 -12 -12.5 -19.5t-22.5 -5.5q-23 4 -43.5 7.5 t-40.5 7.5q-96 20 -180 60t-156 95q-35 -4 -71.5 -7t-73.5 -3q-141 0 -265 35t-225 94q6 4 13.5 8t13.5 8q51 -6 102 -6q197 0 369 56.5t298 155t198.5 231.5t72.5 286q0 41 -6 84q96 -78 151.5 -175t55.5 -208z" />
<glyph unicode="&#xf087;" horiz-adv-x="1597" d="M1477 629q0 23 -12.5 43t-26.5 35q16 29 28.5 57.5t12.5 62.5q0 35 -17.5 55.5t-43 31t-56.5 12.5t-57 2q-45 0 -90.5 -3t-90.5 -3q-31 0 -61.5 3t-58.5 15q0 41 16 78t35.5 74.5t35 78.5t15.5 91q0 33 -10.5 65.5t-29.5 59t-47 44t-65 17.5h-11t-11 -2q-8 -4 -9 -8 t-3 -13q-12 -59 -22.5 -123.5t-39.5 -117.5q-29 -51 -74 -88t-86 -78q-29 -31 -49 -56.5t-41.5 -48t-48.5 -42t-65 -35.5h-2v-643q70 0 136 -16.5t133.5 -35t141.5 -35t160 -16.5q45 0 98 6t99.5 26.5t78 56.5t31.5 95q0 10 -1 18.5t-3 18.5q35 16 53.5 53t18.5 74 q0 39 -21 68q60 49 60 123zM315 197q33 0 56.5 22.5t23.5 56.5q0 33 -23.5 56.5t-56.5 23.5q-35 0 -57 -23.5t-22 -56.5q0 -35 22 -57t57 -22zM1577 713q18 -43 18 -90q0 -78 -41 -142q10 -59 -7 -118.5t-58 -104.5q-4 -84 -45 -139.5t-102.5 -89t-135 -47t-143.5 -13.5 q-72 0 -144.5 10.5t-142.5 28.5q-70 20 -139.5 43t-142.5 23h-375q-49 0 -84 34.5t-35 84.5v643q0 49 35 83.5t84 34.5h348q27 14 43 30.5t35 39.5q16 20 32.5 38.5t34.5 37.5q33 35 76 68.5t66 74.5q16 29 23 64.5t12.5 71.5t12.5 70t23.5 60.5t47 42t81.5 15.5 q61 0 111.5 -25.5t85.5 -68.5t54.5 -98.5t19.5 -112.5q0 -59 -17.5 -112.5t-42.5 -107.5q35 2 70 4.5t70 2.5q55 0 107 -10.5t93 -35t66.5 -67.5t25.5 -109q0 -29 -5 -57t-15 -57z" />
<glyph unicode="&#xf088;" horiz-adv-x="1597" d="M121 508q0 -23 12 -43.5t27 -34.5q-16 -29 -28.5 -57.5t-12.5 -63.5t17.5 -55.5t43 -30.5t56 -12t57.5 -2q47 0 91 3t89 3q31 0 61.5 -3t59.5 -15q0 -41 -16.5 -78t-36 -75t-34.5 -79t-15 -90q0 -33 10 -65.5t29.5 -59t47 -43t64.5 -16.5q4 0 11.5 -1t11.5 1q8 4 9 8 l3 12q12 59 22.5 124t38.5 118q29 51 74 88t86 78q29 31 49.5 56.5t42 48t47 42t66.5 35.5h2v643q-72 0 -137.5 16.5t-133 36t-141 36t-159.5 16.5q-45 0 -98.5 -7.5t-99.5 -27t-78 -56t-32 -96.5q0 -10 1 -18t3 -19q-35 -16 -53 -53t-18 -74q0 -39 20 -67q-59 -49 -59 -123 zM1282 940q-33 0 -56.5 -22.5t-23.5 -57.5q0 -33 23.5 -56.5t56.5 -23.5q35 0 57.5 23.5t22.5 56.5q0 35 -22.5 57.5t-57.5 22.5zM20 424q-18 43 -18 90q0 78 41 141q-10 59 7.5 119t58.5 105q4 84 45 139t102 89t135 47t144 13q72 0 144.5 -10t141.5 -29 q70 -20 139.5 -42.5t143.5 -22.5h375q49 0 83.5 -35t34.5 -84v-643q0 -49 -34.5 -84t-83.5 -35h-349q-27 -14 -43 -30.5t-34 -38.5q-16 -20 -32.5 -39t-35.5 -37q-33 -35 -76 -69t-65 -74q-25 -43 -31 -99.5t-18.5 -106.5t-44 -84t-107.5 -34q-61 0 -111.5 25.5t-85 68.5 t-54 98.5t-19.5 112.5q0 59 17.5 112.5t41.5 106.5q-35 -2 -69.5 -4t-69.5 -2q-55 0 -107.5 10.5t-93.5 35t-66.5 67.5t-25.5 108q0 29 5 57.5t15 57.5z" />
<glyph unicode="&#xf089;" horiz-adv-x="837" d="M838 219l-453 -237q-41 -23 -64.5 -6.5t-15.5 63.5l86 504l-364 356q-35 33 -26 60.5t54 33.5l506 74l227 459q23 41 50 41v-1348z" />
<glyph unicode="&#xf08a;" horiz-adv-x="1802" d="M901 -31q-33 0 -55 23l-617 614q-4 2 -39.5 41t-77.5 102.5t-77 146.5t-35 177q0 137 43 231.5t112.5 153t156.5 84t177 25.5q63 0 125 -21.5t115 -53.5t97 -70t75 -68q31 31 76 68.5t98 69.5t113.5 53.5t126.5 21.5q88 0 175 -25.5t156.5 -84t112.5 -153t43 -231.5 q0 -94 -34.5 -177t-76.5 -146.5t-79 -102.5t-39 -43l-615 -612q-26 -23 -57 -23zM489 1407q-57 0 -115.5 -13.5t-106.5 -50t-77.5 -101t-29.5 -169.5q0 -68 27.5 -131t61.5 -112.5t63 -79.5l28 -29l561 -559l561 559l29 29q29 30 62.5 79.5t61 113t27.5 130.5 q0 104 -29.5 169t-77.5 101.5t-106.5 50t-113.5 13.5q-53 0 -107.5 -25.5t-102.5 -61.5t-86 -74t-56 -60q-25 -31 -62 -31t-61 31q-18 23 -56.5 60.5t-86.5 73.5t-102.5 61.5t-105.5 25.5z" />
<glyph unicode="&#xf08b;" horiz-adv-x="1689" d="M307 0q-63 0 -118.5 24.5t-97.5 66.5t-66.5 97.5t-24.5 118.5v922q0 63 24.5 118.5t66.5 97.5t97.5 66.5t118.5 24.5h461v-193h-461q-47 0 -80.5 -33.5t-33.5 -80.5v-922q0 -47 33.5 -80.5t80.5 -33.5h461v-193h-461v0zM1671 811q18 -18 18.5 -44t-18.5 -42l-553 -553 q-18 -18 -43 -18q-10 0 -22 4q-39 16 -39 57v291h-428q-33 0 -55.5 22.5t-22.5 55.5v368q0 33 22.5 54.5t55.5 21.5h428v293q0 41 39 57q39 14 65 -14l553 -553v0z" />
<glyph unicode="&#xf08c;" horiz-adv-x="1536" d="M1329 717q0 141 -81 208.5t-216 67.5q-55 0 -107.5 -15t-93.5 -56q0 16 -3 34.5t-25 18.5h-195q-10 0 -19 -8.5t-9 -20.5v-706q0 -10 9 -19.5t19 -9.5h201q12 0 20.5 9t8.5 20v383q0 68 26.5 113.5t102.5 45.5q59 0 79.5 -28.5t20.5 -81.5v-432q0 -10 8 -19.5t21 -9.5 h204q10 0 19.5 9t9.5 20v477zM342 1055q57 0 97 40t40 97q0 55 -40 95t-97 40q-55 0 -95 -40t-40 -95q0 -57 40 -97t95 -40zM471 946q0 29 -29 29h-200q-10 0 -19.5 -8.5t-9.5 -20.5v-706q0 -10 9 -19.5t20 -9.5h200q12 0 20.5 9t8.5 20v706zM1343 1536q80 0 136.5 -56.5 t56.5 -136.5v-1150q0 -41 -15.5 -76t-41 -60.5t-61.5 -41t-75 -15.5h-1150q-80 0 -136.5 56.5t-56.5 136.5v1150q0 39 15.5 75t41 61.5t60.5 41t76 15.5h1150v0z" />
<glyph unicode="&#xf08d;" horiz-adv-x="1916" d="M1280 455q10 12 8 28.5t-16 26.5q-12 10 -28.5 8t-26.5 -16q-51 -68 -102.5 -116t-95.5 -75.5t-78 -36t-48 4.5q-14 10 -29.5 7t-25.5 -18q-10 -12 -8.5 -28.5t16.5 -26.5q29 -23 69 -23q41 0 88.5 21.5t95.5 57.5t94 84.5t87 101.5zM829 483q8 -8 23 -8q20 0 33 17 q10 14 8 29.5t-16 25.5l-347 258q-16 -14 -32.5 -27.5t-32.5 -23.5zM236 817q31 0 65.5 17.5t71.5 46t72.5 66.5t66.5 79q10 14 7 30.5t-15 26.5q-14 10 -30.5 8.5t-27.5 -16.5q-78 -104 -138 -143t-72 -35q-14 10 -31 7t-27 -15q-10 -14 -7 -30.5t15 -27.5q21 -14 50 -14z M1905 39q25 -25 4 -53q-12 -16 -33 -17q-10 0 -18 6l-517 293q-74 -80 -155.5 -135t-161.5 -80.5t-151.5 -19.5t-127.5 47q-76 55 -95 158.5t9 228.5l-303 223q-76 -33 -145.5 -32t-122.5 40q-51 39 -72.5 104.5t-13.5 147.5t45 172t100 176t139 147.5t152 92.5t145.5 30 t121.5 -40q53 -41 73.5 -107.5t12.5 -148.5l301 -225q111 63 215 73t180 -47q55 -41 80.5 -108.5t23.5 -150.5t-30.5 -177t-83.5 -188l428 -410v0z" />
<glyph unicode="&#xf08e;" d="M1843 1393v-490q0 -25 -17.5 -42t-39.5 -15h-86q-25 0 -41.5 16.5t-16.5 40.5v268l-772 -770q-16 -16 -40.5 -16t-41.5 16l-79 80q-16 16 -16.5 41t16.5 41l770 772h-269q-25 0 -41 16.5t-16 41.5v86q-2 23 15.5 40t41.5 17h576q23 0 40 -17.5t17 -39.5v-86zM1497 647 q41 -31 90 -49t103 -20v-271q0 -63 -25 -118.5t-67 -97.5t-97 -66.5t-119 -24.5h-1075q-63 0 -119.5 24.5t-97.5 66.5t-65.5 97.5t-24.5 118.5v922q0 63 24.5 119.5t65.5 97.5t97.5 65.5t119.5 24.5h582q-2 -14 -4 -27.5t-2 -29.5v-88q0 -23 6 -48h-582q-47 0 -80.5 -33.5 t-33.5 -80.5v-922q0 -47 33.5 -80.5t80.5 -33.5h1075q47 0 81 33.5t34 80.5v340z" />
<glyph unicode="&#xf090;" horiz-adv-x="1689" d="M1163 811q16 -18 16.5 -44t-16.5 -42l-553 -553q-18 -18 -43 -18q-8 0 -24 4q-37 16 -37 57v291h-428q-33 0 -55.5 22.5t-22.5 55.5v368q0 33 22.5 54.5t55.5 21.5h428v293q0 41 37 57q39 14 67 -14l553 -553v0zM1382 1536q63 0 118.5 -24.5t97.5 -65.5t67 -97.5 t25 -119.5v-922q0 -63 -25 -118.5t-67 -97.5t-97 -66.5t-119 -24.5h-460v193h460q47 0 81 33.5t34 80.5v922q0 47 -33.5 80.5t-81.5 33.5h-460v193h460v0z" />
<glyph unicode="&#xf091;" horiz-adv-x="1689" d="M1536 1151h-262q-12 -94 -31.5 -189.5t-44.5 -175.5q78 25 140.5 60t106.5 71.5t67.5 70.5t23.5 54v109zM492 786q-25 80 -44.5 175.5t-33.5 189.5h-260v-109q0 -20 23.5 -54t67.5 -70.5t106.5 -71.5t140.5 -60zM1690 1042q0 -63 -45.5 -130.5t-122 -128t-180 -106.5 t-222.5 -65q-51 -10 -91 -41.5t-40 -70.5q0 -35 17.5 -51.5t39 -31t40 -31.5t22.5 -52q4 -23 -2 -47q-4 -14 23.5 -23.5t67.5 -18.5t82 -22.5t64 -34.5q12 -10 19.5 -39.5t9.5 -64.5q2 -33 -6 -58.5t-29 -25.5h-985q-20 0 -28.5 25.5t-6.5 58.5q2 35 9.5 64.5t19.5 39.5 q23 20 64 34t80.5 23t68.5 18t25 24q-4 14 -4 25.5v21.5q2 35 21.5 52t42 31.5t39.5 31t17 51.5q0 39 -39.5 70.5t-93.5 41.5q-117 20 -220 66.5t-180 106t-122 127t-45 130.5v187q0 33 22.5 54.5t55.5 21.5h323q-2 12 -2 25v24v4q0 53 4.5 88t15.5 54.5t31.5 27.5t55.5 8 h678q33 0 54.5 -8t32.5 -27.5t15 -54.5t4 -88v-25.5t-2 -27.5h324q33 0 55.5 -21.5t22.5 -54.5v-187v0z" />
<glyph unicode="&#xf092;" horiz-adv-x="1536" d="M1343 1536q80 0 136.5 -56.5t56.5 -136.5v-1150q0 -41 -15.5 -76t-41 -60.5t-61.5 -41t-75 -15.5h-337v25q0 39 2 97t-3.5 115.5t-24.5 104.5t-65 66q188 20 290 110t102 287q0 66 -22.5 128t-67.5 114q6 23 8 45t2 45q0 41 -9.5 91t-31.5 85h-12q-43 2 -79 -8.5 t-68 -27.5t-62.5 -37.5t-65.5 -39.5q-33 4 -65.5 6t-65.5 2t-65.5 -2t-65.5 -6q-35 18 -65.5 39t-62.5 38t-67.5 27.5t-79.5 8.5h-12q-23 -35 -32 -85t-9 -91q0 -23 2 -45.5t8 -44.5q-45 -51 -66.5 -114t-21.5 -128q0 -193 95.5 -283t281.5 -112q-39 -16 -59.5 -50 t-32.5 -75q-27 -8 -49.5 -15.5t-50.5 -7.5q-55 0 -88 28.5t-59.5 62.5t-56.5 62.5t-79 28.5q-4 0 -20.5 -2t-16.5 -12q0 -23 19.5 -32t31.5 -19q39 -31 56.5 -71t39 -76.5t62.5 -62.5t127 -26q35 0 80 11q0 -10 -1 -18.5t-1 -16.5q0 -29 2 -59.5t-2 -59.5h-317 q-80 0 -136.5 56.5t-56.5 136.5v1150q0 39 15.5 75t41 61.5t60.5 41t76 15.5h1150v0z" />
<glyph unicode="&#xf093;" d="M1483 1008q23 -23 15.5 -38.5t-38.5 -15.5h-307v-499q0 -33 -22.5 -55.5t-55.5 -22.5h-307q-33 0 -54.5 22.5t-21.5 55.5v499h-307q-33 0 -39 15.5t16 38.5l504 505q23 23 55.5 23t55.5 -23zM1804 692q16 0 27.5 -11t11.5 -28v-614q0 -39 -39 -39h-1765q-39 0 -39 39v614 q0 16 11.5 27.5t27.5 11.5h229q16 0 27.5 -11t11.5 -28v-346h1229v346q0 16 11.5 27.5t27.5 11.5h229v0z" />
<glyph unicode="&#xf094;" horiz-adv-x="1609" d="M924 1536q59 0 112.5 -9t106.5 -20q41 -8 85 -15t93 -7h2q29 0 62.5 5t66.5 5q25 0 45.5 -6t32.5 -25q23 -31 26 -71.5t-2 -75.5q-4 -35 -8 -71t2 -72q4 -23 11.5 -39.5t15.5 -36.5q8 -18 11 -40t7 -42q18 -104 15.5 -195.5t-23 -170.5t-56.5 -148.5t-81 -132.5 q-37 -49 -79 -97.5t-92 -91.5t-110.5 -77.5t-134.5 -59.5q-76 -27 -158.5 -34t-158.5 -11h-31q-104 0 -194.5 16.5t-192.5 16.5h-4q-35 0 -77 -10.5t-83 -12.5h-2q-37 0 -65.5 17.5t-42.5 42.5q-20 35 -17.5 72.5t12.5 68.5t10.5 66.5t-5 75.5t-12.5 81t-9 82q-2 35 1 68.5 t7 74.5q4 35 7 72t10 66q14 66 30.5 128t44.5 117q20 41 45 81t54 79q10 14 21 24.5t24 20.5q23 23 45 45.5t49 42.5t57.5 36.5t65.5 33.5q33 16 67.5 29.5t71.5 27.5q70 29 156 51l2 2q45 12 85 17.5t79 5.5z" />
<glyph unicode="&#xf095;" horiz-adv-x="1597" d="M1214 551q10 0 51.5 -22.5t89.5 -50t93 -55.5t61 -36q16 -10 46 -25.5t40 -35.5q2 -6 2 -23q0 -16 -3 -36.5t-8 -43t-12 -43t-13 -35.5q-18 -39 -59.5 -71.5t-92.5 -55t-104.5 -36t-92.5 -13.5q-80 0 -153.5 25.5t-145.5 54.5q-123 45 -232.5 118t-203.5 164t-175 196.5 t-144 215.5q-25 41 -52.5 95.5t-51 112t-39 113.5t-15.5 105q0 55 14.5 114.5t43 114t68.5 98.5t93 69q12 -2 26.5 0t26.5 2q10 0 30 -1l40 -2t38.5 -4.5t27.5 -7.5q8 -6 15 -18t12 -26.5t9.5 -30t8.5 -25.5q6 -18 23.5 -65.5t35.5 -97.5t32.5 -93t14.5 -53q0 -37 -24.5 -68 t-54 -57.5t-54.5 -50t-25 -45.5q0 -20 16.5 -49t26.5 -46q84 -145 188.5 -248.5t252.5 -187.5q18 -10 45.5 -27.5t50.5 -17.5t52.5 32t60 70.5t62 70.5t58.5 32z" />
<glyph unicode="&#xf096;" d="M1382 1536q63 0 118.5 -24.5t97.5 -66.5t67 -97.5t25 -118.5v-922q0 -63 -25 -118.5t-67 -97.5t-97 -66.5t-119 -24.5h-1075q-63 0 -118.5 24.5t-97.5 66.5t-66.5 97.5t-24.5 118.5v922q0 63 24.5 118.5t66.5 97.5t97.5 66.5t118.5 24.5h1075v0zM1382 1343h-1075 q-47 0 -80.5 -33.5t-33.5 -80.5v-922q0 -47 33.5 -80.5t80.5 -33.5h1075q47 0 81 33.5t34 80.5v922q0 47 -34 80.5t-81 33.5z" />
<glyph unicode="&#xf097;" horiz-adv-x="1253" d="M1139 1536q47 0 80.5 -34t33.5 -81v-1337q0 -47 -33.5 -81t-80.5 -34t-80 33l-432 432l-432 -432q-33 -33 -80 -33t-81 34t-34 81v1337q0 47 34 81t81 34h1024v0zM158 1380v-1194l469 471l469 -471v1194h-938z" />
<glyph unicode="&#xf098;" horiz-adv-x="1536" d="M1319 319q4 8 9 27t9 38t6.5 37.5t-2.5 29.5q-4 12 -24.5 22t-36.5 21q-43 25 -71.5 41t-67.5 38q-16 10 -36 23.5t-38 13.5q-23 0 -46.5 -27.5t-37.5 -43.5q-12 -14 -36.5 -43t-47.5 -31q-14 -2 -32.5 10t-37.5 23q-106 59 -182 136t-135 177q-10 16 -21.5 37.5 t-7.5 38.5q2 18 24.5 33.5t35.5 29.5q14 16 31.5 37t19.5 43q4 16 -5 38t-16 42q-16 43 -28.5 76t-26.5 76q-6 16 -12 40.5t-21 30.5q-8 4 -26.5 7t-39 4.5t-37.5 0t-24 -1.5h-8q-33 -16 -62.5 -45.5t-51 -69.5t-34 -88t-9.5 -100q2 -35 15 -76.5t30 -78.5q16 -37 33.5 -72 t33.5 -63q74 -129 176.5 -241t225.5 -190q31 -18 67.5 -36.5t75.5 -32.5q41 -16 83 -31.5t81 -21.5q63 -10 112.5 2t90.5 34q27 12 57.5 33.5t44.5 52.5zM1343 1536q80 0 136.5 -56.5t56.5 -136.5v-1150q0 -41 -15.5 -76t-41 -60.5t-61.5 -41t-75 -15.5h-1150 q-80 0 -136.5 56.5t-56.5 136.5v1150q0 39 15.5 75t41 61.5t60.5 41t76 15.5h1150v0z" />
<glyph unicode="&#xf099;" d="M1782 748q23 4 42 -7.5t19 -38.5q0 -29 -26.5 -50t-61.5 -37.5t-72.5 -25.5t-58.5 -11q-43 -139 -133 -246t-210 -178.5t-258 -109.5t-275 -38q-219 0 -415 93.5t-325 273.5q-8 16 -8 26q0 20 13.5 33.5t33.5 13.5q14 0 31 -12q123 -109 287 -108q59 0 117.5 15t107.5 48 q-29 16 -47.5 42t-18.5 58q0 23 8 39q-18 6 -44.5 20.5t-51 34t-41 43t-16.5 46.5q0 16 10 28.5t25 22.5q-41 25 -76 74t-35 98q0 33 33 43q-35 35 -55.5 81t-20.5 95q0 23 9.5 41.5t37.5 18.5q18 0 84 -27t142.5 -60.5t146.5 -67.5t98 -48q25 -14 47.5 -31.5t44.5 -36.5 q20 51 47 106.5t60 106.5t73 96t89 74q8 6 24 6q18 0 27 -8q16 6 41.5 13.5t42.5 7.5q29 0 43 -27q31 0 56.5 -15.5t25.5 -50.5q0 -31 -27 -53q96 -43 159.5 -125t90.5 -182q6 -2 23 -2q47 0 88 16.5t57 16.5q18 0 31.5 -14.5t13.5 -32.5q0 -23 -19.5 -48.5t-33.5 -39.5z " />
<glyph unicode="&#xf09a;" horiz-adv-x="790" d="M578 1278q-53 0 -65.5 -16.5t-12.5 -67.5v-88h223q14 0 29 -14q10 -10 10 -29l-17 -205q0 -16 -11 -25.5t-27 -9.5h-207v-784q0 -16 -11.5 -27.5t-27.5 -11.5h-258q-16 0 -27.5 11.5t-11.5 27.5v784h-125q-16 0 -27.5 11.5t-11.5 27.5v203q0 16 11.5 28.5t27.5 12.5h125 v102q0 358 366 359q123 0 232 -31q33 -10 29 -43l-27 -199q-4 -16 -16 -26q-16 -10 -31 -6q-35 8 -72.5 12t-66.5 4z" />
<glyph unicode="&#xf09b;" horiz-adv-x="1847" d="M494 524q0 66 26.5 113t65.5 47t66.5 -47t27.5 -113t-27.5 -112.5t-66.5 -46.5t-65.5 46.5t-26.5 112.5zM1354 524q0 66 -27 113t-65 47q-39 0 -67 -47t-28 -113t28 -112.5t67 -46.5t65.5 46.5t26.5 112.5zM983 369q0 12 -17.5 21t-41.5 9q-25 0 -42.5 -9t-17.5 -21 t17.5 -21.5t42.5 -9.5t42 9.5t17 21.5zM924 154q-43 0 -78 28.5t-51 75.5q-6 16 12 25q16 6 24 -13q27 -76 93 -75q31 0 56.5 20.5t35.5 54.5q8 20 26 13q16 -6 13 -25q-16 -47 -51 -75.5t-80 -28.5zM1847 743q0 -233 -66.5 -383.5t-188.5 -236.5t-292 -120t-376 -34 q-207 0 -378 34t-292 120t-187.5 236.5t-66.5 383.5q0 115 37 222.5t113 193.5l-3 4l3 2q-16 39 -21.5 81t-5.5 85q0 25 2 56.5t8 65.5t15.5 63.5t23.5 50.5h8q61 0 110.5 -12.5t94.5 -35t87 -52t91 -60.5q86 25 178.5 33t182.5 8t182 -8t180 -33q47 31 90 60.5t87 52 t93.5 35t110.5 12.5h10q12 -20 21.5 -50t15.5 -64t9 -65.5t3 -56.5q0 -43 -6 -85t-20 -81v-2l-2 -4q76 -86 112.5 -193.5t36.5 -222.5zM1239 827q-78 0 -156.5 -7t-156.5 -7t-157 7t-157 7q-162 0 -262 -87t-100 -257q0 -145 64.5 -224t165 -116t219 -43t227.5 -6 q74 0 152.5 2t153.5 12.5t142.5 34t117.5 67.5t80 111.5t30 165.5q0 84 -27 147.5t-75 106.5t-114.5 64.5t-146.5 21.5z" />
<glyph unicode="&#xf09c;" horiz-adv-x="1880" d="M694 449q29 18 47.5 48.5t18.5 65.5q0 55 -39 95t-94 40t-94 -40t-39 -95q0 -35 18 -65.5t47 -46.5l-65 -287h266zM1331 1567q113 0 213.5 -43t175 -118t117.5 -175.5t43 -212.5v-152q0 -33 -22.5 -55.5t-55.5 -22.5h-80q-33 0 -55 23t-22 55v152q0 66 -25 123t-67 99 t-99 66.5t-123 24.5t-122 -24.5t-99 -66.5t-67.5 -99.5t-24.5 -122.5v-156h119q47 0 81.5 -34.5t34.5 -84.5v-626q0 -47 -34.5 -82t-81.5 -35h-1020q-47 0 -82 35t-35 82v626q0 49 35 84t82 35h665v156q0 113 43 213t118 175t175 118t213 43z" />
<glyph unicode="&#xf09d;" d="M1122 250h-446v115h446v-115zM567 250h-307v115h307v-115zM1690 1382h-1536v-268h1536v268zM1690 729h-1536v-575h1536v575zM1690 1536q63 0 108 -45t45 -109v-1228q0 -63 -45 -108.5t-108 -45.5h-1536q-63 0 -108.5 45t-45.5 109v1228q0 63 45 108.5t109 45.5h1536v0z " />
<glyph unicode="&#xf09e;" horiz-adv-x="1566" d="M236 471q49 0 91 -18.5t74.5 -51t51 -74.5t18.5 -91t-18.5 -92.5t-51 -75t-74.5 -50t-91 -18.5t-92.5 18.5t-75 50t-50 74.5t-18.5 93q0 49 18.5 91t50 74.5t75 51t92.5 18.5zM84 1055q193 -14 362.5 -95t301 -212.5t212 -301.5t95.5 -362q4 -35 -21 -59q-23 -25 -57 -25 h-158q-29 0 -51.5 20.5t-26.5 51.5q-12 133 -68.5 249.5t-145.5 205.5t-205.5 145.5t-249.5 68.5q-31 4 -51.5 27t-20.5 51v158q0 35 25 57q23 23 53 23q2 0 3 -1t3 -1zM82 1567q301 -16 565 -137t463 -320t319.5 -463t137.5 -565q4 -31 -23 -57q-23 -25 -55 -25h-158 q-31 0 -53.5 21.5t-24.5 52.5q-14 238 -110 446.5t-255 367.5t-368 255t-446 110q-31 2 -52.5 24.5t-21.5 53.5v158q0 33 25 55q23 23 53 23h4v0z" />
<glyph unicode="&#xf0a0;" d="M1690 575q0 16 -11.5 27.5t-27.5 11.5h-1458q-16 0 -27.5 -11t-11.5 -28v-382q0 -16 11 -27.5t28 -11.5h1458q16 0 27.5 11t11.5 28v382zM453 1382q-16 0 -31.5 -10t-20.5 -26l-188 -578h1417l-188 578q-4 16 -19.5 26t-31.5 10h-938v0zM1391 1536q66 0 121 -40t75 -103 l238 -727q6 -23 12 -45.5t6 -45.5v-382q0 -41 -15.5 -76t-41 -60.5t-61 -41t-74.5 -15.5h-1458q-80 0 -136.5 56.5t-56.5 136.5v382q0 23 6 45.5t12 45.5l238 727q20 63 75.5 103t121.5 40h938v0zM1153 479q39 0 66.5 -27.5t27.5 -66.5q0 -41 -27.5 -68.5t-66.5 -27.5 q-41 0 -68.5 27.5t-27.5 68.5q0 39 27.5 66.5t68.5 27.5zM1460 479q39 0 66.5 -27.5t27.5 -66.5q0 -41 -27.5 -68.5t-66.5 -27.5q-41 0 -68.5 27.5t-27.5 68.5q0 39 27.5 66.5t68.5 27.5z" />
<glyph unicode="&#xf0a1;" d="M1575 1333q-76 -59 -166 -113.5t-190.5 -98.5t-205 -77.5t-206.5 -48.5v-254q102 -16 206.5 -49t205 -78t191.5 -99t165 -112v930zM1843 868q0 -53 -32.5 -93t-81.5 -52v-369q0 -63 -45.5 -108t-108.5 -45q-68 68 -164 132t-206.5 117.5t-227.5 91.5t-227 50 q-43 -12 -70 -40t-37 -62.5t-2 -70.5t37 -65q-25 -41 -23 -75.5t20.5 -66.5t49.5 -61.5t66 -58.5q-20 -43 -69.5 -65.5t-106 -25.5t-110.5 10.5t-85 43.5q-18 61 -40 125t-36 130.5t-14 138t24 151.5h-200q-63 0 -108.5 45t-45.5 109v229q0 63 45 108.5t109 45.5h499 q115 0 245 33.5t255 90t235.5 128t186.5 147.5q63 0 108.5 -45t45.5 -109v-368q49 -12 81.5 -52.5t32.5 -93.5z" />
<glyph unicode="&#xf0a2;" horiz-adv-x="1759" d="M1522 317q-78 86 -129.5 183.5t-84 202t-50 214t-25.5 222.5q-4 55 -41 104t-89 86t-111.5 57.5t-110.5 20.5q-47 0 -107.5 -21.5t-114 -56.5t-91.5 -83t-40 -99q-6 -111 -23.5 -222.5t-51 -218t-87 -205t-128.5 -184.5h1284zM881 41q18 0 18 20t-18 21q-53 0 -91 37 t-38 90q0 20 -19 20q-20 0 -20 -20q0 -70 49 -119t119 -49zM1391 1159q6 -121 27.5 -239.5t63.5 -227t109.5 -204t167.5 -171.5q-4 -70 -56 -114.5t-120 -44.5h-469q-18 -82 -82.5 -135.5t-150.5 -53.5t-151.5 53.5t-84.5 135.5h-469q-68 0 -120 45t-56 114 q104 78 172 172.5t109 201t60 224t28 240.5q6 84 56 159t126 131t163 89t167 33q74 0 163 -33t165.5 -88t129 -129t52.5 -158z" />
<glyph unicode="&#xf0a3;" horiz-adv-x="1597" d="M1575 629q23 -23 22 -56q0 -25 -16 -45t-41 -26l-194 -49q6 -18 15 -48t18.5 -61t16.5 -59.5t7 -46.5q0 -29 -21.5 -51.5t-52.5 -22.5q-18 0 -47 7t-59.5 16.5t-60 18.5t-48.5 15l-49 -194q-6 -25 -26.5 -41.5t-45.5 -16.5q-33 0 -55 23l-139 143l-142 -143 q-18 -23 -53 -23q-25 0 -45 16.5t-27 41.5l-49 194q-18 -6 -47.5 -15t-60.5 -18.5t-59.5 -16.5t-47.5 -7q-31 0 -52 22.5t-21 51.5q0 18 7 46.5t16 59.5t18.5 60.5t15.5 48.5l-195 49q-25 6 -41 26.5t-16 44.5q0 33 23 56l143 139l-143 139q-23 23 -23 56q0 25 16.5 45 t40.5 26l195 49q-6 18 -15.5 48t-18.5 61t-16 59.5t-7 46.5q0 31 21.5 52.5t51.5 21.5q18 0 47 -7t60 -16.5t60.5 -18.5t47.5 -15l49 194q6 25 27 41.5t45 16.5q35 0 53 -23l142 -143l139 143q23 23 53 23q27 0 47.5 -15.5t26.5 -42.5l49 -194q18 6 48 15t60.5 18.5 t59.5 16.5t47 7q29 0 51.5 -21.5t22.5 -52.5q0 -18 -7 -46.5t-16.5 -59.5t-18.5 -60.5t-15 -48.5l194 -49q25 -6 41 -26.5t16 -44.5q0 -33 -22 -56l-145 -139z" />
<glyph unicode="&#xf0a4;" horiz-adv-x="1916" d="M1323 707q90 0 178 1t178 1q51 0 84 30.5t33 81.5q0 53 -32.5 85t-84.5 32q-172 0 -340 1t-338 1q0 41 16.5 78t35 74.5t34 78.5t15.5 91q0 33 -10.5 65.5t-29 59t-46 44t-64.5 17.5h-11t-11 -2q-8 -4 -9 -8t-3 -13q-12 -59 -22.5 -123.5t-39.5 -117.5q-29 -51 -73 -88 t-85 -78q-29 -31 -49 -56.5t-41.5 -48t-48.5 -42t-65 -35.5h-5v-643q70 0 136.5 -16.5t133 -35t133 -35t138.5 -16.5q43 0 84 8t72 27.5t50 52.5t19 82q0 14 -1 26.5t-3 24.5q35 16 53.5 53t18.5 74q0 39 -20 68q59 49 59 123q0 23 -12.5 43.5t-26.5 34.5zM313 197 q33 0 56.5 22.5t23.5 56.5q0 33 -23.5 56.5t-56.5 23.5q-35 0 -57.5 -23.5t-22.5 -56.5q0 -35 22.5 -57t57.5 -22zM1303 1059l376 -2q49 0 93.5 -17.5t76 -49.5t50 -75t18.5 -94q0 -49 -18.5 -92t-50 -74.5t-75.5 -49t-94 -17.5h-200q-10 -59 -39 -107q10 -59 -7.5 -117.5 t-56.5 -103.5q0 -76 -28.5 -131t-75.5 -90t-109.5 -52.5t-132.5 -17.5q-78 0 -148.5 16.5t-136 36t-128 36t-123.5 16.5h-375q-49 0 -84 34.5t-35 84.5v643q0 49 35 83.5t84 34.5h348q27 14 42 30.5t34 39.5q16 20 33.5 38.5t33.5 37.5q35 35 77 68.5t65 74.5 q25 43 29.5 99.5t17 106.5t44 84t109.5 34q61 0 111.5 -25.5t85.5 -68.5t54.5 -98.5t19.5 -112.5q0 -53 -15.5 -104.5t-38.5 -98.5h134z" />
<glyph unicode="&#xf0a5;" horiz-adv-x="1916" d="M748 1059q-23 47 -38.5 98t-15.5 105q0 57 19.5 112.5t54.5 98.5t85 68.5t112 25.5q78 0 109.5 -34t43.5 -84t17.5 -106.5t29.5 -99.5q23 -41 65 -74.5t77 -68.5q16 -18 33.5 -37t33.5 -39q18 -23 33.5 -39t42.5 -31h348q49 0 84 -34.5t35 -83.5v-643q0 -49 -35 -84 t-84 -35h-375q-61 0 -123.5 -16.5t-128 -36t-136 -36t-148.5 -16.5q-70 0 -132.5 17.5t-109.5 52.5t-75.5 90t-28.5 131q-39 45 -56.5 103.5t-7.5 117.5q-29 47 -39 107h-200q-49 0 -93.5 17.5t-76 49t-50 74.5t-18.5 92q0 51 18.5 94t50 75t75.5 49.5t94 17.5l376 2h134z M1604 197q35 0 57 22.5t22 56.5q0 33 -22.5 56.5t-56.5 23.5q-33 0 -56.5 -23.5t-23.5 -56.5q0 -35 23.5 -57t56.5 -22zM594 707q-14 -14 -26.5 -35t-12.5 -43q0 -74 59 -123q-20 -29 -20 -68q0 -37 18.5 -73.5t53.5 -53.5q-2 -12 -3 -24.5t-1 -26.5q0 -49 19 -82t50 -52.5 t72 -27.5t84 -8q70 0 137.5 16.5t134 35t133 35t135.5 16.5v643h-4q-41 16 -66.5 35.5t-47 42t-42 48t-48.5 56.5q-41 41 -85 78t-73 88q-29 53 -39 117.5t-23 123.5q-2 8 -3 12.5t-9 8.5q-4 2 -11 2h-11q-37 0 -65 -17.5t-46 -44t-28.5 -59.5t-10.5 -65q0 -49 15.5 -90.5 t34 -79t34.5 -74.5t16 -78q-170 0 -337.5 -1t-339.5 -1q-51 0 -84 -32t-33 -85q0 -51 32.5 -81.5t84.5 -30.5q90 0 178 -1t178 -1z" />
<glyph unicode="&#xf0a6;" horiz-adv-x="1597" d="M860 973q0 90 -1 178t-1 178q0 51 -30.5 84t-82.5 33q-53 0 -84.5 -33t-31.5 -84q0 -172 -1 -340t-1 -338q-41 0 -78 16.5t-75 35t-79 34t-90 15.5q-33 0 -65.5 -10.5t-59 -29t-43 -46t-16.5 -64.5q0 -4 -1 -11t1 -11q4 -8 8 -9.5t12 -3.5q59 -12 124 -22t118 -39 q51 -29 88 -73t78 -85q31 -29 56.5 -49t48 -41.5t42 -48.5t35.5 -66v-4h643q0 70 16.5 136.5t35 133t35 133t16.5 138.5q0 43 -8.5 84t-28 71.5t-52 50t-81.5 19.5q-14 0 -26.5 -1t-25.5 -3q-16 35 -53 53.5t-74 18.5q-39 0 -67 -21q-49 59 -123 60q-23 0 -43.5 -12.5 t-34.5 -26.5zM1370 -37q0 33 -22.5 56.5t-57.5 23.5q-33 0 -56.5 -23.5t-23.5 -56.5q0 -35 23.5 -57.5t56.5 -22.5q35 0 57.5 22.5t22.5 57.5zM508 952l2 377q0 49 17.5 93t49 76t74.5 50.5t94 18.5q49 0 92.5 -18.5t75 -50.5t49 -76t17.5 -93v-201q59 -10 106 -38 q59 10 118 -7.5t104 -56.5q76 0 131 -28.5t90 -76t52 -109.5t17 -132q0 -78 -16 -148.5t-35.5 -136t-36 -128t-16.5 -124.5v-374q0 -49 -35 -84t-84 -35h-643q-49 0 -84 34.5t-35 84.5v348q-14 27 -30.5 42t-38.5 34q-20 16 -39 33.5t-37 33.5q-35 35 -68.5 77t-74.5 64 q-43 25 -99.5 30t-106.5 17.5t-84 44t-34 109.5q0 61 25.5 111.5t68.5 85.5t98.5 54t112.5 19q53 0 104.5 -15t98.5 -38v133z" />
<glyph unicode="&#xf0a7;" horiz-adv-x="1597" d="M508 367q-47 -23 -98.5 -38.5t-104.5 -15.5q-57 0 -112.5 19.5t-98.5 54.5t-68.5 85t-25.5 112q0 78 34 109.5t84 44t106.5 17.5t99.5 29q41 23 74.5 65t68.5 77q18 16 36.5 33.5t39.5 33.5q23 18 39 33.5t30 42.5v348q0 49 35 84t84 35h643q49 0 84 -35t35 -84v-375 q0 -61 16.5 -123.5t36 -128t35.5 -136t16 -148.5q0 -70 -17 -132.5t-52 -109.5t-90.5 -75.5t-130.5 -28.5q-45 -39 -103.5 -56.5t-118.5 -7.5q-47 -29 -106 -39v-200q0 -49 -17.5 -93.5t-49 -76t-74.5 -50t-93 -18.5q-51 0 -94 18.5t-74.5 50t-49 75.5t-17.5 94l-2 376v134z M1370 1223q0 35 -22.5 57.5t-57.5 22.5q-33 0 -56.5 -23t-23.5 -57q0 -33 23.5 -56.5t56.5 -23.5q35 0 57.5 23.5t22.5 56.5zM860 213q14 -14 34.5 -26.5t43.5 -12.5q74 0 123 59q29 -20 67 -20q37 0 74 18.5t53 53.5q12 -2 24.5 -3t27.5 -1q49 0 81.5 19t52 50t28 72 t8.5 84q0 70 -16.5 137.5t-35 134t-35 133t-16.5 136.5h-643v-5q-16 -41 -35.5 -66.5t-42 -47t-48 -42t-56.5 -48.5q-41 -41 -78 -85t-88 -73q-53 -29 -117.5 -39t-124.5 -23l-12 -3t-8 -9q-2 -4 -1 -11t1 -11q0 -37 16.5 -64.5t43 -46t59 -29t65.5 -10.5q49 0 90 15.5 t79 34t75 35t78 16.5q0 -170 1 -338t1 -340q0 -51 31.5 -84t84.5 -33q51 0 82 32.5t31 84.5q0 90 1 178t1 178z" />
<glyph unicode="&#xf0a8;" horiz-adv-x="1597" d="M848 1307q-20 20 -48 20t-50 -20l-490 -490q-20 -20 -20 -49t20 -49l490 -490q20 -20 48.5 -20t49.5 20l74 74q20 20 20 48t-20 50l-246 246h612q29 0 49.5 19.5t20.5 48.5v104q0 29 -20.5 49.5t-49.5 20.5h-612l246 246q20 20 20 48.5t-20 49.5l-74 74v0zM0 768 q0 166 62.5 311.5t171 254t254 171t311.5 62.5t311 -62.5t254 -171t171 -254t62 -311.5t-62 -311.5t-171 -254t-254 -171t-311 -62.5t-311.5 62.5t-254 171t-171 254t-62.5 311.5z" />
<glyph unicode="&#xf0a9;" horiz-adv-x="1597" d="M750 229q20 -20 47.5 -20t50.5 20l489 490q20 20 20.5 49t-20.5 49l-489 490q-20 20 -49 20t-49 -20l-74 -74q-20 -20 -20.5 -48t20.5 -50l246 -246h-613q-29 0 -49 -19.5t-20 -48.5v-104q0 -29 20.5 -49.5t48.5 -20.5h613l-246 -246q-20 -20 -20.5 -48.5t20.5 -49.5 l74 -74v0zM1597 768q0 -166 -62 -311.5t-171 -254t-254 -171t-311 -62.5t-311.5 62.5t-254 171t-171 254t-62.5 311.5t62.5 311.5t171 254t254 171t311.5 62.5t311 -62.5t254 -171t171 -254t62 -311.5z" />
<glyph unicode="&#xf0aa;" horiz-adv-x="1597" d="M1337 719q20 20 20.5 48t-20.5 50l-489 490q-20 20 -49 20t-49 -20l-490 -490q-20 -20 -20 -49t20 -49l74 -74q20 -20 48 -20t50 20l246 246v-612q0 -29 19.5 -49.5t47.5 -20.5h105q29 0 49.5 20.5t20.5 49.5v612l245 -246q20 -20 49 -20t50 20l73 74v0zM799 1567 q166 0 311 -62.5t254 -171t171 -254t62 -311.5t-62 -311.5t-171 -254t-254 -171t-311 -62.5t-311.5 62.5t-254 171t-171 254t-62.5 311.5t62.5 311.5t171 254t254 171t311.5 62.5z" />
<glyph unicode="&#xf0ab;" horiz-adv-x="1597" d="M260 817q-20 -20 -20 -48t20 -50l490 -490q20 -20 48.5 -20t49.5 20l489 490q20 20 20.5 49t-20.5 49l-73 74q-20 20 -48 20t-51 -20l-245 -246v612q0 29 -19.5 49.5t-48.5 20.5h-104q-29 0 -49.5 -20.5t-20.5 -49.5v-612l-246 246q-20 20 -49 20t-49 -20l-74 -74v0z M799 -31q-166 0 -311.5 62.5t-254 171t-171 254t-62.5 311.5t62.5 311.5t171 254t254 171t311.5 62.5t311 -62.5t254 -171t171 -254t62 -311.5t-62 -311.5t-171 -254t-254 -171t-311 -62.5z" />
</font>
</defs>
</svg>
